Wall Street Money Never Sleeps (2010) REMUX 1080p Latino – CMHDD

41 vistas
1 estrella2 estrellas3 estrellas4 estrellas5 estrellas (Ninguna valoración todavía)
Cargando...

Información de Wall Street Money Never Sleeps (2010) REMUX 1080p Latino – CMHDD

Datos de la película

  • Calidad: Full 1080p
  • Audio: Español Latino AC3 5.1 BLURAY - Ingles DTS 5.1 BLURAY
  • Subtitulos: Español Latino PGS
  • Resolución: 1920x1080p
  • Formato: MKV
  • Codec: H.264
  • Encoder: Dracarys
  • Mediainfo: Clic para Mostrar Datos Ver
  • Format                      : Matroska
    Format version              : Version 4
    File size                   : 23.2 GiB
    Duration                    : 2 h 12 min
    Overall bit rate mode       : Variable
    Overall bit rate            : 25.0 Mb/s
    Movie name                  : Wall Street Money Never Sleeps (2010) REMUX 1080p Latino - CMHDD
    Encoded date                : UTC 2021-07-17 23:35:58
    Writing application         : mkvmerge v56.1.0 ('My Friend') 64-bit
    Writing library             : libebml v1.4.2 + libmatroska v1.6.4
    Cover                       : Yes
    Attachments                 : cover.jpg

    Video
    ID                          : 1
    ID in the original source m : 4113 (0x1011)
    Format                      : AVC
    Format/Info                 : Advanced Video Codec
    Format profile              : High@L4.1
    Format settings             : CABAC / 4 Ref Frames
    Format settings, CABAC      : Yes
    Format settings, Reference  : 4 frames
    Codec ID                    : V_MPEG4/ISO/AVC
    Duration                    : 2 h 12 min
    Bit rate mode               : Variable
    Bit rate                    : 21.1 Mb/s
    Maximum bit rate            : 34.5 Mb/s
    Width                       : 1 920 pixels
    Height                      : 1 080 pixels
    Display aspect ratio        : 16:9
    Frame rate mode             : Constant
    Frame rate                  : 23.976 (24000/1001) FPS
    Color space                 : YUV
    Chroma subsampling          : 4:2:0
    Bit depth                   : 8 bits
    Scan type                   : Progressive
    Bits/(Pixel*Frame)          : 0.424
    Stream size                 : 19.6 GiB (84%)
    Default                     : Yes
    Forced                      : No
    Color range                 : Limited
    Color primaries             : BT.709
    Transfer characteristics    : BT.709
    Matrix coefficients         : BT.709
    Original source medium      : Blu-ray

    Audio #1
    ID                          : 2
    ID in the original source m : 4352 (0x1100)
    Format                      : DTS XLL
    Format/Info                 : Digital Theater Systems
    Commercial name             : DTS-HD Master Audio
    Codec ID                    : A_DTS
    Duration                    : 2 h 12 min
    Bit rate mode               : Variable
    Bit rate                    : 3 427 kb/s
    Channel(s)                  : 6 channels
    Channel layout              : C L R Ls Rs LFE
    Sampling rate               : 48.0 kHz
    Frame rate                  : 93.750 FPS (512 SPF)
    Bit depth                   : 24 bits
    Compression mode            : Lossless
    Stream size                 : 3.18 GiB (14%)
    Language                    : English
    Default                     : No
    Forced                      : No
    Original source medium      : Blu-ray

    Audio #2
    ID                          : 3
    ID in the original source m : 4354 (0x1102)
    Format                      : AC-3
    Format/Info                 : Audio Coding 3
    Commercial name             : Dolby Digital
    Codec ID                    : A_AC3
    Duration                    : 2 h 12 min
    Bit rate mode               : Constant
    Bit rate                    : 448 kb/s
    Channel(s)                  : 6 channels
    Channel layout              : L R C LFE Ls Rs
    Sampling rate               : 48.0 kHz
    Frame rate                  : 31.250 FPS (1536 SPF)
    Compression mode            : Lossy
    Stream size                 : 426 MiB (2%)
    Language                    : Spanish
    Service kind                : Complete Main
    Default                     : Yes
    Forced                      : No
    Original source medium      : Blu-ray

    Text
    ID                          : 4
    ID in the original source m : 4609 (0x1201)
    Format                      : PGS
    Muxing mode                 : zlib
    Codec ID                    : S_HDMV/PGS
    Codec ID/Info               : Picture based subtitle format used on BDs/HD-DVDs
    Duration                    : 2 h 12 min
    Bit rate                    : 45.2 kb/s
    Count of elements           : 3898
    Stream size                 : 42.9 MiB (0%)
    Language                    : Spanish
    Default                     : No
    Forced                      : No
    Original source medium      : Blu-ray

    Menu
    00:00:00.000                : Chapter 01
    00:08:27.965                : Chapter 02
    00:13:15.503                : Chapter 03
    00:16:05.089                : Chapter 04
    00:20:39.279                : Chapter 05
    00:25:41.456                : Chapter 06
    00:29:45.074                : Chapter 07
    00:35:02.391                : Chapter 08
    00:40:23.879                : Chapter 09
    00:44:59.363                : Chapter 10
    00:49:21.583                : Chapter 11
    00:54:27.973                : Chapter 12
    01:00:36.090                : Chapter 13
    01:03:48.241                : Chapter 14
    01:09:46.640                : Chapter 15
    01:16:28.667                : Chapter 16
    01:21:08.154                : Chapter 17
    01:25:18.404                : Chapter 18
    01:27:36.542                : Chapter 19
    01:32:49.480                : Chapter 20
    01:37:42.356                : Chapter 21
    01:41:27.790                : Chapter 22
    01:45:14.933                : Chapter 23
    01:48:07.814                : Chapter 24
    01:53:44.025                : Chapter 25
    01:58:49.163                : Chapter 26
    02:01:39.917                : Chapter 27
    02:06:31.208                : Chapter 28

  • Peso: 23.2 GiB

Sinopsis

Secuela de la popular cinta de 1987 «Wall Street», ambientada 20 años después. Recién salido de prisión tras cumplir una larga condena, el implacable tiburón de las finanzas, Gordon Gekko, se siente desorientado en un nuevo mundo que en tiempos dominó. Buscando rehacer sus arruinadas relaciones con su hija, Gekko conoce por casualidad a Jakob, su prometido. Juntos proyectan apoyarse mutuamente: Gordon ayudará a Jacob a vengar la ruina de su mentor y este intentará que Gordon y su hija se reconcilien.

Ficha técnica

  • Titulo original: Wall Street: Money Never Sleeps
  • Fecha de lanzamiento: 02-09-2010 (United States of America)
  • Director: Oliver Stone
  • Género: Crimen, Drama
  • Puntuación: 0.0 0 votos
  • Duración:
    2h 11m

Video trailer de la película

Enlaces de descarga

Rip de Bluray

Descargar Wall Street Money Never Sleeps (2010) REMUX 1080p Latino – CMHDD


Aportes de DPeliculasHDmega la pass es:dpeliculashdmega.org Aportes de CinemaniaHD la pass es:cinemaniahdd.com
Guardado en : Crimen , Drama

Películas relacionadas

Wall Street Money Never Sleeps (2010) REMUX 1080p Latino – CMHDD pelicula full hd, Wall Street Money Never Sleeps (2010) REMUX 1080p Latino – CMHDD mega latino, Wall Street Money Never Sleeps (2010) REMUX 1080p Latino – CMHDD 4k latino, Wall Street Money Never Sleeps (2010) REMUX 1080p Latino – CMHDD pelicula completa, Wall Street Money Never Sleeps (2010) REMUX 1080p Latino – CMHDD descargar gratis, descargar Wall Street Money Never Sleeps (2010) REMUX 1080p Latino – CMHDD pelicula latino, Wall Street Money Never Sleeps (2010) REMUX 1080p Latino – CMHDD 1 link mega, Wall Street Money Never Sleeps (2010) REMUX 1080p Latino – CMHDD 1 link google drive, Wall Street Money Never Sleeps (2010) REMUX 1080p Latino – CMHDD hd 1080p latino.
Comentarios 0