Wall Street (1987) REMUX 1080p Latino – CMHDD

44 vistas
1 estrella2 estrellas3 estrellas4 estrellas5 estrellas (Ninguna valoración todavía)
Cargando...

Información de Wall Street (1987) REMUX 1080p Latino – CMHDD

Datos de la película

  • Calidad: Full 1080p
  • Audio: Español Latino AC3 2.0 BLURAY - Ingles DTS 5.1 BLURAY
  • Subtitulos: Español Latino PGS
  • Resolución: 1920x1080p
  • Formato: MKV
  • Codec: H.264
  • Encoder: Dracarys
  • Mediainfo: Clic para Mostrar Datos Ver
  • Format                      : Matroska
    Format version              : Version 4
    File size                   : 26.9 GiB
    Duration                    : 2 h 5 min
    Overall bit rate mode       : Variable
    Overall bit rate            : 30.7 Mb/s
    Movie name                  : Wall Street (1987) REMUX 1080p Latino - CMHDD
    Encoded date                : UTC 2021-07-16 05:19:46
    Writing application         : mkvmerge v56.1.0 ('My Friend') 64-bit
    Writing library             : libebml v1.4.2 + libmatroska v1.6.4

    Video
    ID                          : 1
    ID in the original source m : 4113 (0x1011)
    Format                      : AVC
    Format/Info                 : Advanced Video Codec
    Format profile              : High@L4.1
    Format settings             : CABAC / 3 Ref Frames
    Format settings, CABAC      : Yes
    Format settings, Reference  : 3 frames
    Format settings, GOP        : M=3, N=24
    Codec ID                    : V_MPEG4/ISO/AVC
    Duration                    : 2 h 5 min
    Bit rate                    : 26.6 Mb/s
    Width                       : 1 920 pixels
    Height                      : 1 080 pixels
    Display aspect ratio        : 16:9
    Frame rate mode             : Constant
    Frame rate                  : 23.976 (24000/1001) FPS
    Color space                 : YUV
    Chroma subsampling          : 4:2:0
    Bit depth                   : 8 bits
    Scan type                   : Progressive
    Bits/(Pixel*Frame)          : 0.535
    Stream size                 : 23.4 GiB (87%)
    Default                     : Yes
    Forced                      : No
    Original source medium      : Blu-ray

    Audio #1
    ID                          : 2
    ID in the original source m : 4352 (0x1100)
    Format                      : DTS XLL
    Format/Info                 : Digital Theater Systems
    Commercial name             : DTS-HD Master Audio
    Codec ID                    : A_DTS
    Duration                    : 2 h 5 min
    Bit rate mode               : Variable
    Bit rate                    : 3 577 kb/s
    Channel(s)                  : 6 channels
    Channel layout              : C L R Ls Rs LFE
    Sampling rate               : 48.0 kHz
    Frame rate                  : 93.750 FPS (512 SPF)
    Bit depth                   : 24 bits
    Compression mode            : Lossless
    Delay relative to video     : 6 ms
    Stream size                 : 3.14 GiB (12%)
    Language                    : English
    Default                     : No
    Forced                      : No
    Original source medium      : Blu-ray

    Audio #2
    ID                          : 3
    ID in the original source m : 4354 (0x1102)
    Format                      : AC-3
    Format/Info                 : Audio Coding 3
    Commercial name             : Dolby Digital
    Codec ID                    : A_AC3
    Duration                    : 2 h 5 min
    Bit rate mode               : Constant
    Bit rate                    : 224 kb/s
    Channel(s)                  : 2 channels
    Channel layout              : L R
    Sampling rate               : 48.0 kHz
    Frame rate                  : 31.250 FPS (1536 SPF)
    Compression mode            : Lossy
    Delay relative to video     : 6 ms
    Stream size                 : 201 MiB (1%)
    Language                    : Spanish
    Service kind                : Complete Main
    Default                     : Yes
    Forced                      : No
    Original source medium      : Blu-ray

    Audio #3
    ID                          : 4
    ID in the original source m : 4355 (0x1103)
    Format                      : AC-3
    Format/Info                 : Audio Coding 3
    Commercial name             : Dolby Digital
    Codec ID                    : A_AC3
    Duration                    : 2 h 5 min
    Bit rate mode               : Constant
    Bit rate                    : 224 kb/s
    Channel(s)                  : 2 channels
    Channel layout              : L R
    Sampling rate               : 48.0 kHz
    Frame rate                  : 31.250 FPS (1536 SPF)
    Compression mode            : Lossy
    Delay relative to video     : 6 ms
    Stream size                 : 201 MiB (1%)
    Language                    : English
    Service kind                : Complete Main
    Default                     : No
    Forced                      : No
    Original source medium      : Blu-ray

    Text #1
    ID                          : 5
    ID in the original source m : 4609 (0x1201)
    Format                      : PGS
    Muxing mode                 : zlib
    Codec ID                    : S_HDMV/PGS
    Codec ID/Info               : Picture based subtitle format used on BDs/HD-DVDs
    Duration                    : 1 h 57 min
    Bit rate                    : 77.8 kb/s
    Count of elements           : 3481
    Stream size                 : 65.4 MiB (0%)
    Language                    : Spanish
    Default                     : No
    Forced                      : No
    Original source medium      : Blu-ray

    Text #2
    ID                          : 6
    ID in the original source m : 4613 (0x1205)
    Format                      : PGS
    Muxing mode                 : zlib
    Codec ID                    : S_HDMV/PGS
    Codec ID/Info               : Picture based subtitle format used on BDs/HD-DVDs
    Duration                    : 1 h 9 min
    Bit rate                    : 739 b/s
    Count of elements           : 26
    Stream size                 : 378 KiB (0%)
    Language                    : Spanish
    Default                     : No
    Forced                      : No
    Original source medium      : Blu-ray

    Menu
    00:00:00.000                : Chapter 01
    00:04:26.015                : Chapter 02
    00:09:04.543                : Chapter 03
    00:13:22.218                : Chapter 04
    00:23:20.899                : Chapter 05
    00:26:19.619                : Chapter 06
    00:28:40.051                : Chapter 07
    00:33:27.130                : Chapter 08
    00:37:06.307                : Chapter 09
    00:40:42.106                : Chapter 10
    00:44:05.726                : Chapter 11
    00:52:41.866                : Chapter 12
    00:56:45.235                : Chapter 13
    00:59:49.001                : Chapter 14
    01:05:00.563                : Chapter 15
    01:07:14.488                : Chapter 16
    01:13:18.435                : Chapter 17
    01:19:43.987                : Chapter 18
    01:22:11.760                : Chapter 19
    01:30:31.175                : Chapter 20
    01:32:16.989                : Chapter 21
    01:34:19.737                : Chapter 22
    01:38:26.525                : Chapter 23
    01:42:47.119                : Chapter 24
    01:45:26.194                : Chapter 25
    01:47:00.163                : Chapter 26
    01:53:07.238                : Chapter 27
    01:59:06.889                : Chapter 28

  • Peso: 26.9 GiB

Sinopsis

Bud Fox es un joven y ambicioso corredor de bolsa que logró finalizar sus estudios universitarios gracias a su esfuerzo y al de su padre, mecánico y jefe de sindicato. Su mayor deseo es trabajar con el hombre al que admira, Gordon Gekko, un individuo sin escrúpulos hecho a sí mismo que, en poco tiempo, ha conseguido amasar una gran fortuna en el mundo de la bolsa. Gracias a su insistencia, Bud consigue introducirse en el círculo privado del todopoderoso Gekko y comienza a colaborar con él en sus negocios e inversiones.

Ficha técnica

  • Titulo original: Wall Street
  • Fecha de lanzamiento: 10-12-1987 (United States of America)
  • Director: Oliver Stone
  • Género: Crimen, Drama
  • Puntuación: 0.0 0 votos
  • Duración:
    2h 6m

Video trailer de la película

Enlaces de descarga

Rip de Bluray

Descargar Wall Street (1987) REMUX 1080p Latino – CMHDD


Aportes de DPeliculasHDmega la pass es:dpeliculashdmega.org Aportes de CinemaniaHD la pass es:cinemaniahdd.com
Guardado en : Crimen , Drama

Películas relacionadas

Wall Street (1987) REMUX 1080p Latino – CMHDD pelicula full hd, Wall Street (1987) REMUX 1080p Latino – CMHDD mega latino, Wall Street (1987) REMUX 1080p Latino – CMHDD 4k latino, Wall Street (1987) REMUX 1080p Latino – CMHDD pelicula completa, Wall Street (1987) REMUX 1080p Latino – CMHDD descargar gratis, descargar Wall Street (1987) REMUX 1080p Latino – CMHDD pelicula latino, Wall Street (1987) REMUX 1080p Latino – CMHDD 1 link mega, Wall Street (1987) REMUX 1080p Latino – CMHDD 1 link google drive, Wall Street (1987) REMUX 1080p Latino – CMHDD hd 1080p latino.