×

¿Problemas para descargar con Mozilla, EDGE? Deshabilita la opción "Abrir vinculos en una pestaña nueva" tal como lo muestra ésta imagen.

WALL·E (2008) REMUX 4K HDR Latino – CMHDD

490 vistas

Información de WALL·E (2008) REMUX 4K HDR Latino – CMHDD

Datos de la película

  • Calidad: 4K HDR
  • Audio: Español Latino AC3 5.1 BLURAY - Ingles DTS 5.1 BLURAY
  • Subtitulos: Español Latino PGS
  • Resolución: 3840x2160p
  • Formato: MKV
  • Codec: H.264
  • Encoder: Dracarys
  • Mediainfo: Clic para Mostrar Datos Ver
  • Format                      : Matroska
    Format version              : Version 4
    File size                   : 37.1 GiB
    Duration                    : 1 h 38 min
    Overall bit rate mode       : Variable
    Overall bit rate            : 53.8 Mb/s
    Movie name                  : WALL·E (2008) REMUX 4K HDR Latino - CMHDD
    Encoded date                : UTC 2022-04-27 05:19:32
    Writing application         : mkvmerge v17.0.0 ('Be Ur Friend') 64-bit
    Writing library             : libebml v1.3.5 + libmatroska v1.4.8

    Video
    ID                          : 1
    Format                      : HEVC
    Format/Info                 : High Efficiency Video Coding
    Format profile              : Main 10@L5.1@High
    HDR format                  : SMPTE ST 2086, HDR10 compatible
    Codec ID                    : V_MPEGH/ISO/HEVC
    Duration                    : 1 h 38 min
    Bit rate                    : 41.1 Mb/s
    Width                       : 3 840 pixels
    Height                      : 2 160 pixels
    Display aspect ratio        : 16:9
    Frame rate mode             : Constant
    Frame rate                  : 23.976 (23976/1000) FPS
    Original frame rate         : 23.976 (24000/1001) FPS
    Color space                 : YUV
    Chroma subsampling          : 4:2:0 (Type 2)
    Bit depth                   : 10 bits
    Bits/(Pixel*Frame)          : 0.207
    Stream size                 : 28.3 GiB (76%)
    Writing library             : ATEME Titan File 3.9.0 (4.9.0.0)        
    Default                     : Yes
    Forced                      : No
    Color range                 : Limited
    Color primaries             : BT.2020
    Transfer characteristics    : PQ
    Matrix coefficients         : BT.2020 non-constant
    Mastering display color pri : Display P3
    Mastering display luminance : min: 0.0000 cd/m2, max: 1000 cd/m2

    Audio #1
    ID                          : 2
    Format                      : MLP FBA 16-ch
    Format/Info                 : Meridian Lossless Packing FBA with 16-channel presentation
    Commercial name             : Dolby TrueHD with Dolby Atmos
    Codec ID                    : A_TRUEHD
    Duration                    : 1 h 38 min
    Bit rate mode               : Variable
    Bit rate                    : 7 236 kb/s
    Maximum bit rate            : 8 217 kb/s
    Channel(s)                  : 8 channels
    Channel layout              : L R C LFE Ls Rs Lb Rb
    Sampling rate               : 48.0 kHz
    Frame rate                  : 1 200.000 FPS (40 SPF)
    Compression mode            : Lossless
    Stream size                 : 4.99 GiB (13%)
    Language                    : English
    Default                     : No
    Forced                      : No
    Number of dynamic objects   : 13
    Bed channel count           : 1 channel
    Bed channel configuration   : LFE

    Audio #2
    ID                          : 3
    Format                      : AC-3
    Format/Info                 : Audio Coding 3
    Commercial name             : Dolby Digital
    Format settings             : Dolby Surround EX
    Codec ID                    : A_AC3
    Duration                    : 1 h 38 min
    Bit rate mode               : Constant
    Bit rate                    : 640 kb/s
    Channel(s)                  : 6 channels
    Channel layout              : L R C LFE Ls Rs
    Sampling rate               : 48.0 kHz
    Frame rate                  : 31.250 FPS (1536 SPF)
    Compression mode            : Lossy
    Stream size                 : 452 MiB (1%)
    Language                    : English
    Service kind                : Complete Main
    Default                     : No
    Forced                      : No

    Audio #3
    ID                          : 4
    Format                      : DTS ES XLL
    Format/Info                 : Digital Theater Systems
    Commercial name             : DTS-HD Master Audio
    Codec ID                    : A_DTS
    Duration                    : 1 h 38 min
    Bit rate mode               : Variable
    Bit rate                    : 4 145 kb/s
    Channel(s)                  : 6 channels
    Channel(s)_Original         : 7 channels
    ChannelLayout_Original      : C L R Ls Rs LFE Cs
    Sampling rate               : 48.0 kHz
    Frame rate                  : 93.750 FPS (512 SPF)
    Bit depth                   : 24 bits
    Compression mode            : Lossless
    Delay relative to video     : 667 ms
    Stream size                 : 2.86 GiB (8%)
    Language                    : English
    Default                     : No
    Forced                      : No

    Audio #4
    ID                          : 5
    Format                      : AC-3
    Format/Info                 : Audio Coding 3
    Commercial name             : Dolby Digital
    Codec ID                    : A_AC3
    Duration                    : 1 h 38 min
    Bit rate mode               : Constant
    Bit rate                    : 640 kb/s
    Channel(s)                  : 6 channels
    Channel layout              : L R C LFE Ls Rs
    Sampling rate               : 48.0 kHz
    Frame rate                  : 31.250 FPS (1536 SPF)
    Compression mode            : Lossy
    Delay relative to video     : 667 ms
    Stream size                 : 452 MiB (1%)
    Language                    : Spanish
    Service kind                : Complete Main
    Default                     : Yes
    Forced                      : No

    Text
    ID                          : 6
    Format                      : PGS
    Muxing mode                 : zlib
    Codec ID                    : S_HDMV/PGS
    Codec ID/Info               : Picture based subtitle format used on BDs/HD-DVDs
    Duration                    : 1 h 37 min
    Bit rate                    : 11.8 kb/s
    Count of elements           : 1046
    Stream size                 : 8.24 MiB (0%)
    Language                    : Spanish
    Default                     : No
    Forced                      : No

    Menu
    00:00:00.000                : en:Chapter 1
    00:03:36.966                : en:Chapter 2
    00:05:50.349                : en:Chapter 3
    00:09:19.433                : en:Chapter 4
    00:12:04.098                : en:Chapter 5
    00:17:57.117                : en:Chapter 6
    00:19:34.047                : en:Chapter 7
    00:21:10.811                : en:Chapter 8
    00:23:47.467                : en:Chapter 9
    00:29:18.673                : en:Chapter 10
    00:31:25.758                : en:Chapter 11
    00:33:28.422                : en:Chapter 12
    00:35:20.785                : en:Chapter 13
    00:38:50.202                : en:Chapter 14
    00:42:54.196                : en:Chapter 15
    00:43:32.317                : en:Chapter 16
    00:51:09.608                : en:Chapter 17
    00:52:08.249                : en:Chapter 18
    00:54:48.117                : en:Chapter 19
    00:56:06.446                : en:Chapter 20
    00:57:58.683                : en:Chapter 21
    00:58:41.851                : en:Chapter 22
    01:02:15.564                : en:Chapter 23
    01:03:21.714                : en:Chapter 24
    01:05:50.362                : en:Chapter 25
    01:11:45.550                : en:Chapter 26
    01:15:54.883                : en:Chapter 27
    01:19:23.466                : en:Chapter 28
    01:20:15.351                : en:Chapter 29
    01:24:14.757                : en:Chapter 30
    01:25:46.432                : en:Chapter 31
    01:30:18.162                : en:Chapter 32

  • Peso: 37.1 GiB

Sinopsis

En el año 2700, en un planeta Tierra devastado y sin vida, tras cientos de solitarios años haciendo aquello para lo que fue construido -limpiar el planeta de basura- el pequeño robot WALL•E descubre una nueva misión en su vida cuando se encuentra con una moderna y lustrosa robot exploradora llamada EVE. Ambos viajarán a lo largo de la galaxia y vivirán una emocionante e inolvidable aventura.

Ficha técnica

Video trailer de la película

Enlaces de descarga

Rip de Bluray

Descargar WALL·E (2008) REMUX 4K HDR Latino – CMHDD


Aportes de DPeliculasHDmega la pass es:dpeliculashdmega.org Aportes de CinemaniaHD la pass es:cinemaniahdd.com

Películas relacionadas

  • Rick and Morty (2022) Temporada 6 WEB-DL 1080p Latino

    Rick and Morty (2022) Temporada 6 WEB-DL 1080p Latino

    2013
    Rick and Morty (2022) Temporada 6 WEB-DL 1080p Latino

    0h 22m 2013

    Comedia animada que narra las aventuras de un científico loco Rick Sánchez, que regresa después de...

    Director: Justin Roiland

    Género: Action & Adventure

    Actores: Spencer Grammer

  • Lilo, Lilo, cocodrilo (2022) WEB-DL 1080p Latino

    Lilo, Lilo, cocodrilo (2022) WEB-DL 1080p Latino

    2022
    Lilo, Lilo, cocodrilo (2022) WEB-DL 1080p Latino

    1h 46m 2022

    Descargar Lilo, Lilo, cocodrilo (2022) WEB-DL 1080p Latino. Cuando la familia Primm se muda a Nueva York,...

    Director: Will Speck

    Género: Comedia

    Actores: Zeb Slone

  • El Lobo Y El Leon (2021) HD 1080p Latino

    El Lobo Y El Leon (2021) HD 1080p Latino

    2021
    El Lobo Y El Leon (2021) HD 1080p Latino

    1h 39m 2021

    Descargar El Lobo Y El Leon (2021) HD 1080p Latino. A la muerte de su abuelo, Alma, un joven pianista...

    Director: Gilles de Maistre

    Género: Aventura

    Actores: Victor Cornfoot

  • El Lobo Y El Leon (2021) PLACEBO Full HD 1080p Latino

    El Lobo Y El Leon (2021) PLACEBO Full HD 1080p Latino

    2021
    El Lobo Y El Leon (2021) PLACEBO Full HD 1080p Latino

    1h 39m 2021

    Descargar El Lobo Y El Leon (2021) PLACEBO Full HD 1080p Latino. A la muerte de su abuelo, Alma, un joven...

    Director: Gilles de Maistre

    Género: Aventura

    Actores: Victor Cornfoot

  • El Lobo Y El Leon (2021) REMUX 1080p Latino

    El Lobo Y El Leon (2021) REMUX 1080p Latino

    2021
    El Lobo Y El Leon (2021) REMUX 1080p Latino

    1h 39m 2021

    Descargar El Lobo Y El Leon (2021) REMUX 1080p Latino. A la muerte de su abuelo, Alma, un joven pianista...

    Director: Gilles de Maistre

    Género: Aventura

    Actores: Victor Cornfoot

descargar WALL·E (2008) REMUX 4K HDR Latino – CMHDD 4K HDR 1080p gratis, WALL·E (2008) REMUX 4K HDR Latino – CMHDD 4K HDR mega 1 link, WALL·E (2008) REMUX 4K HDR Latino – CMHDD 4K HDR pelicula completa, descargar WALL·E (2008) REMUX 4K HDR Latino – CMHDD 4K HDR gratis en mega.

WALL·E (2008) REMUX 4K HDR Latino – CMHDD pelicula full hd, WALL·E (2008) REMUX 4K HDR Latino – CMHDD mega latino, WALL·E (2008) REMUX 4K HDR Latino – CMHDD 4k latino, WALL·E (2008) REMUX 4K HDR Latino – CMHDD pelicula completa, WALL·E (2008) REMUX 4K HDR Latino – CMHDD descargar gratis, descargar WALL·E (2008) REMUX 4K HDR Latino – CMHDD pelicula latino, WALL·E (2008) REMUX 4K HDR Latino – CMHDD 1 link mega, WALL·E (2008) REMUX 4K HDR Latino – CMHDD 1 link google drive, WALL·E (2008) REMUX 4K HDR Latino – CMHDD hd 1080p latino.
Comentarios 0