×

¿Problemas para descargar con Mozilla, EDGE? Deshabilita la opción "Abrir vinculos en una pestaña nueva" tal como lo muestra ésta imagen.

Black Panther: Wakanda por siempre (2022) D+ IMAX WEB-DL 4K UHD HDR/DV Latino

556 vistas

Información de Black Panther: Wakanda por siempre (2022) D+ IMAX WEB-DL 4K UHD HDR/DV Latino

Datos de la película

  • Calidad: WEBDL
  • Audio: Español Latino AC3 5.1 WEB-DL - Ingles AC3 5.1 WEB-DL
  • Subtitulos: Español Latino SRT- FORZADOS SRT
  • Resolución: 3840x2160p
  • Formato: MKV
  • Codec: HEVC
  • Encoder: Melkor
  • Mediainfo: Clic para Mostrar Datos Ver
  • Black Panther. Wakanda Forever (2022) D+ IMAX WEB UHD HDR Latino.mkv Format                      : Matroska Format version              : Version 4 File size                   : 17.2 GiB Duration                    : 2 h 41 min Overall bit rate            : 15.2 Mb/s Movie name                  : Black Panther. Wakanda Forever (2022) CinemaniaHDD.Net Encoded date                : UTC 2023-02-01 08:53:13 Writing application         : mkvmerge v56.1.0 ('My Friend') 64-bit Writing library             : libebml v1.4.2 + libmatroska v1.6.4 Attachments                 : CINEMANIAHD.png Video ID                          : 1 Format                      : HEVC Format/Info                 : High Efficiency Video Coding Format profile              : Main 10@L5@High HDR format                  : Dolby Vision, Version 1.0, dvhe.08.06, BL+RPU, HDR10 compatible / SMPTE ST 2086, HDR10 compatible Codec ID                    : V_MPEGH/ISO/HEVC Duration                    : 2 h 41 min Bit rate                    : 13.0 Mb/s Width                       : 3 840 pixels Height                      : 2 160 pixels Display aspect ratio        : 16:9 Frame rate mode             : Constant Frame rate                  : 23.976 (24000/1001) FPS Color space                 : YUV Chroma subsampling          : 4:2:0 Bit depth                   : 10 bits Bits/(Pixel*Frame)          : 0.065 Stream size                 : 14.7 GiB (85%) Title                       : Web 2160p HDR [CinemaniaHDD] Language                    : English Default                     : Yes Forced                      : No Color range                 : Limited Color primaries             : BT.2020 Transfer characteristics    : PQ Matrix coefficients         : BT.2020 non-constant Mastering display color pri : BT.2020 Mastering display luminance : min: 0.0000 cd/m2, max: 1000 cd/m2 Audio #1 ID                          : 2 Format                      : AC-3 Format/Info                 : Audio Coding 3 Commercial name             : Dolby Digital Codec ID                    : A_AC3 Duration                    : 2 h 41 min Bit rate mode               : Constant Bit rate                    : 640 kb/s Channel(s)                  : 6 channels Channel layout              : L R C LFE Ls Rs Sampling rate               : 48.0 kHz Frame rate                  : 31.250 FPS (1536 SPF) Compression mode            : Lossy Stream size                 : 738 MiB (4%) Title                       : Español Latino AC3 [CinemaniaHDD] Language                    : Spanish Service kind                : Complete Main Default                     : Yes Forced                      : Yes Audio #2 ID                          : 3 Format                      : E-AC-3 Format/Info                 : Enhanced AC-3 Commercial name             : Dolby Digital Plus Codec ID                    : A_EAC3 Duration                    : 2 h 41 min Bit rate mode               : Constant Bit rate                    : 820 kb/s Channel(s)                  : 6 channels Channel layout              : L R C LFE Ls Rs Sampling rate               : 48.0 kHz Frame rate                  : 31.250 FPS (1536 SPF) Compression mode            : Lossy Stream size                 : 946 MiB (5%) Title                       : Español Latino EAC3 [CinemaniaHDD] Language                    : Spanish Service kind                : Complete Main Default                     : No Forced                      : No Audio #3 ID                          : 4 Format                      : E-AC-3 JOC Format/Info                 : Enhanced AC-3 with Joint Object Coding Commercial name             : Dolby Digital Plus with Dolby Atmos Codec ID                    : A_EAC3 Duration                    : 2 h 41 min Bit rate mode               : Constant Bit rate                    : 768 kb/s Channel(s)                  : 6 channels Channel layout              : L R C LFE Ls Rs Sampling rate               : 48.0 kHz Frame rate                  : 31.250 FPS (1536 SPF) Compression mode            : Lossy Stream size                 : 886 MiB (5%) Title                       : Ingles [CinemaniaHDD] Language                    : English Service kind                : Complete Main Default                     : No Forced                      : No Complexity index            : 16 Number of dynamic objects   : 15 Bed channel count           : 1 channel Bed channel configuration   : LFE Text #1 ID                          : 5 Format                      : UTF-8 Codec ID                    : S_TEXT/UTF8 Codec ID/Info               : UTF-8 Plain Text Duration                    : 2 h 39 min Bit rate                    : 3 b/s Count of elements           : 183 Stream size                 : 3.79 KiB (0%) Title                       : Forzados-SRT [CinemaniaHDD] Language                    : Spanish Default                     : Yes Forced                      : Yes Text #2 ID                          : 6 Format                      : UTF-8 Codec ID                    : S_TEXT/UTF8 Codec ID/Info               : UTF-8 Plain Text Duration                    : 2 h 41 min Bit rate                    : 44 b/s Count of elements           : 1739 Stream size                 : 51.9 KiB (0%) Title                       : Español-SRT [CinemaniaHDD] Language                    : Spanish Default                     : No Forced                      : No Text #3 ID                          : 7 Format                      : UTF-8 Codec ID                    : S_TEXT/UTF8 Codec ID/Info               : UTF-8 Plain Text Duration                    : 2 h 37 min Bit rate                    : 43 b/s Count of elements           : 1931 Stream size                 : 50.6 KiB (0%) Title                       : Ingles-SRT [CinemaniaHDD] Language                    : English Default                     : No Forced                      : No
  • Peso: 17.2 GiB

Sinopsis

Descargar Black Panther: Wakanda por siempre (2022) D+ IMAX WEB-DL 4K UHD HDR Latino. La reina Ramonda, Shuri, M’Baku, Okoye y las Dora Milaje, luchan para proteger su nación de la injerencia de potencias mundiales a raíz de la muerte del rey T’Challa. Mientras los wakandianos se esfuerzan por adaptarse a su nueva etapa, los héroes deben actuar unidos, con la ayuda del Perro de la Guerra Nakia y Everett Ross, y forzar un nuevo destino para el reino de Wakanda.

Nota: Actualizado. Agregada nueva version con Video Limpio, sin subtitulos forzados pegados!!!

Ficha técnica

Video trailer de la película

Enlaces de descarga

Rip de Bluray

Descargar Black Panther: Wakanda por siempre (2022) D+ IMAX WEB-DL 4K UHD HDR/DV Latino




Aportes de DPeliculasHDmega la pass es:dpeliculashdmega.org Aportes de CinemaniaHD la pass es:cinemaniahdd.com Aportes recientes:cinemaniahdd.net

Películas relacionadas

descargar Black Panther: Wakanda por siempre (2022) D+ IMAX WEB-DL 4K UHD HDR/DV Latino WEBDL 1080p gratis, Black Panther: Wakanda por siempre (2022) D+ IMAX WEB-DL 4K UHD HDR/DV Latino WEBDL mega 1 link, Black Panther: Wakanda por siempre (2022) D+ IMAX WEB-DL 4K UHD HDR/DV Latino WEBDL pelicula completa, descargar Black Panther: Wakanda por siempre (2022) D+ IMAX WEB-DL 4K UHD HDR/DV Latino WEBDL gratis en mega.

Black Panther: Wakanda por siempre (2022) D+ IMAX WEB-DL 4K UHD HDR/DV Latino pelicula full hd, Black Panther: Wakanda por siempre (2022) D+ IMAX WEB-DL 4K UHD HDR/DV Latino mega latino, Black Panther: Wakanda por siempre (2022) D+ IMAX WEB-DL 4K UHD HDR/DV Latino 4k latino, Black Panther: Wakanda por siempre (2022) D+ IMAX WEB-DL 4K UHD HDR/DV Latino pelicula completa, Black Panther: Wakanda por siempre (2022) D+ IMAX WEB-DL 4K UHD HDR/DV Latino descargar gratis, descargar Black Panther: Wakanda por siempre (2022) D+ IMAX WEB-DL 4K UHD HDR/DV Latino pelicula latino, Black Panther: Wakanda por siempre (2022) D+ IMAX WEB-DL 4K UHD HDR/DV Latino 1 link mega, Black Panther: Wakanda por siempre (2022) D+ IMAX WEB-DL 4K UHD HDR/DV Latino 1 link google drive, Black Panther: Wakanda por siempre (2022) D+ IMAX WEB-DL 4K UHD HDR/DV Latino hd 1080p latino.
Comentarios 0