×

¿Problemas para descargar con Mozilla, EDGE? Deshabilita la opción "Abrir vinculos en una pestaña nueva" tal como lo muestra ésta imagen.

Esperando Por Siempre (2010) 1080p Latino

246 vistas

Información de Esperando Por Siempre (2010) 1080p Latino

Datos de la película

  • Calidad: 1080p
  • Audio: Se especifica abajo de la Sinopsis
  • Subtitulos: Español Latino SRT - Ingles SRT
  • Resolución: 1920x1036p
  • Formato: MKV
  • Codec: H.264
  • Encoder: CinefiloCool
  • Mediainfo: Clic para Mostrar Datos Ver
  • Esperando Por Siempre (2010) 1080p Latino-CMHDD.mkv
    Format                      : Matroska
    Format version              : Version 4
    File size                   : 3.09 GiB
    Duration                    : 1 h 34 min
    Overall bit rate            : 4 705 kb/s
    Movie name                  : Waiting for Forever (2010) CinemaniaHDD.Net
    Encoded date                : UTC 2021-03-09 05:44:09
    Writing application         : mkvmerge v51.0.0 ('I Wish') 64-bit
    Writing library             : libebml v1.4.0 + libmatroska v1.6.2
    Attachments                 : CINEMANIAHD.png

    Video
    ID                          : 1
    Format                      : AVC
    Format/Info                 : Advanced Video Codec
    Format profile              : High@L4.1
    Format settings             : CABAC / 4 Ref Frames
    Format settings, CABAC      : Yes
    Format settings, Reference  : 4 frames
    Codec ID                    : V_MPEG4/ISO/AVC
    Duration                    : 1 h 34 min
    Bit rate                    : 4 000 kb/s
    Width                       : 1 920 pixels
    Height                      : 1 036 pixels
    Display aspect ratio        : 1.85:1
    Frame rate mode             : Constant
    Frame rate                  : 23.976 (24000/1001) FPS
    Color space                 : YUV
    Chroma subsampling          : 4:2:0
    Bit depth                   : 8 bits
    Scan type                   : Progressive
    Bits/(Pixel*Frame)          : 0.084
    Stream size                 : 2.63 GiB (85%)
    Title                       : HD1080p [CinemaniaHDD]
    Writing library             : x264 core 157 r2935 545de2f
    Encoding settings           : cabac=1 / ref=4 / deblock=1:-2:-2 / analyse=0x3:0x133 / me=umh / subme=9 / psy=1 / psy_rd=1.00:0.25 / mixed_ref=1 / me_range=16 / chroma_me=1 / trellis=2 / 8x8dct=1 / cqm=0 / deadzone=6,6 / fast_pskip=1 / chroma_qp_offset=-4 / threads=24 / lookahead_threads=2 / sliced_threads=0 / nr=0 / decimate=0 / interlaced=0 / bluray_compat=0 / constrained_intra=0 / bframes=3 / b_pyramid=2 / b_adapt=2 / b_bias=0 / direct=3 / weightb=1 / open_gop=0 / weightp=2 / keyint=240 / keyint_min=24 / scenecut=40 / intra_refresh=0 / rc_lookahead=60 / rc=2pass / mbtree=1 / bitrate=4000 / ratetol=1.0 / qcomp=0.80 / qpmin=0 / qpmax=69 / qpstep=4 / cplxblur=20.0 / qblur=0.5 / vbv_maxrate=62500 / vbv_bufsize=78125 / nal_hrd=none / filler=0 / ip_ratio=1.10 / aq=1:0.50
    Default                     : Yes
    Forced                      : Yes
    Color range                 : Limited
    Color primaries             : BT.709
    Transfer characteristics    : BT.709
    Matrix coefficients         : BT.709

    Audio #1
    ID                          : 2
    Format                      : AC-3
    Format/Info                 : Audio Coding 3
    Commercial name             : Dolby Digital
    Codec ID                    : A_AC3
    Duration                    : 1 h 34 min
    Bit rate mode               : Constant
    Bit rate                    : 256 kb/s
    Channel(s)                  : 2 channels
    Channel layout              : L R
    Sampling rate               : 48.0 kHz
    Frame rate                  : 31.250 FPS (1536 SPF)
    Compression mode            : Lossy
    Delay relative to video     : -5 ms
    Stream size                 : 172 MiB (5%)
    Title                       : Español Latino REDUB COL [CinemaniaHDD]
    Language                    : Spanish
    Service kind                : Complete Main
    Default                     : Yes
    Forced                      : Yes

    Audio #2
    ID                          : 3
    Format                      : AC-3
    Format/Info                 : Audio Coding 3
    Commercial name             : Dolby Digital
    Codec ID                    : A_AC3
    Duration                    : 1 h 34 min
    Bit rate mode               : Constant
    Bit rate                    : 448 kb/s
    Channel(s)                  : 6 channels
    Channel layout              : L R C LFE Ls Rs
    Sampling rate               : 48.0 kHz
    Frame rate                  : 31.250 FPS (1536 SPF)
    Compression mode            : Lossy
    Delay relative to video     : -5 ms
    Stream size                 : 302 MiB (10%)
    Title                       : Ingles [CinemaniaHDD]
    Language                    : English
    Service kind                : Complete Main
    Default                     : No
    Forced                      : No

    Text #1
    ID                          : 4
    Format                      : UTF-8
    Codec ID                    : S_TEXT/UTF8
    Codec ID/Info               : UTF-8 Plain Text
    Duration                    : 1 h 24 min
    Bit rate                    : 0 b/s
    Count of elements           : 12
    Stream size                 : 373 Bytes (0%)
    Title                       : Forzados-SRT [CinemaniaHDD]
    Language                    : Spanish
    Default                     : Yes
    Forced                      : Yes

    Text #2
    ID                          : 5
    Format                      : UTF-8
    Codec ID                    : S_TEXT/UTF8
    Codec ID/Info               : UTF-8 Plain Text
    Duration                    : 1 h 29 min
    Bit rate                    : 54 b/s
    Count of elements           : 1123
    Stream size                 : 35.8 KiB (0%)
    Title                       : Español-SRT [CinemaniaHDD]
    Language                    : Spanish
    Default                     : No
    Forced                      : No

    Text #3
    ID                          : 6
    Format                      : UTF-8
    Codec ID                    : S_TEXT/UTF8
    Codec ID/Info               : UTF-8 Plain Text
    Duration                    : 1 h 33 min
    Bit rate                    : 61 b/s
    Count of elements           : 1351
    Stream size                 : 42.1 KiB (0%)
    Title                       : Ingles-SRT [CinemaniaHDD]
    Language                    : English
    Default                     : No
    Forced                      : No

    Menu
    00:00:00.000                : en:Chapter 01
    00:03:05.727                : en:Chapter 02
    00:06:20.671                : en:Chapter 03
    00:10:00.266                : en:Chapter 04
    00:11:50.793                : en:Chapter 05
    00:16:28.487                : en:Chapter 06
    00:19:08.730                : en:Chapter 07
    00:21:27.452                : en:Chapter 08
    00:24:52.407                : en:Chapter 09
    00:30:46.386                : en:Chapter 10
    00:33:54.365                : en:Chapter 11
    00:39:31.452                : en:Chapter 12
    00:42:56.240                : en:Chapter 13
    00:46:58.774                : en:Chapter 14
    00:53:46.181                : en:Chapter 15
    00:58:53.488                : en:Chapter 16
    01:04:13.307                : en:Chapter 17
    01:07:33.007                : en:Chapter 18
    01:10:11.916                : en:Chapter 19
    01:13:16.100                : en:Chapter 20
    01:16:23.370                : en:Chapter 21
    01:22:33.031                : en:Chapter 22
    01:26:54.209                : en:Chapter 23
    01:30:30.049                : en:Chapter 24

  • Peso: 3.09 GiB

Sinopsis

Descargar Esperando Por Siempre (2010) 1080p Latino. Un joven que se gana la vida con espectáculos callejeros intenta por todos los medios de reconquistar a su mejor amiga de la infancia, quien también fue su primer amor.

Audio Español Latino AC3 2.0 Redoblaje Colombia – Ingles AC3 5.1 Bluray

Ficha técnica

Video trailer de la película

Enlaces de descarga

Rip de Bluray

Descargar Esperando Por Siempre (2010) 1080p Latino




Aportes de DPeliculasHDmega la pass es:dpeliculashdmega.org Aportes de CinemaniaHD la pass es:cinemaniahdd.com
Guardado en : Drama , HD 1080p , Romance

Películas relacionadas

descargar Esperando Por Siempre (2010) 1080p Latino 1080p 1080p gratis, Esperando Por Siempre (2010) 1080p Latino 1080p mega 1 link, Esperando Por Siempre (2010) 1080p Latino 1080p pelicula completa, descargar Esperando Por Siempre (2010) 1080p Latino 1080p gratis en mega.

Esperando Por Siempre (2010) 1080p Latino pelicula full hd, Esperando Por Siempre (2010) 1080p Latino mega latino, Esperando Por Siempre (2010) 1080p Latino 4k latino, Esperando Por Siempre (2010) 1080p Latino pelicula completa, Esperando Por Siempre (2010) 1080p Latino descargar gratis, descargar Esperando Por Siempre (2010) 1080p Latino pelicula latino, Esperando Por Siempre (2010) 1080p Latino 1 link mega, Esperando Por Siempre (2010) 1080p Latino 1 link google drive, Esperando Por Siempre (2010) 1080p Latino hd 1080p latino.
Comentarios 0