×

¿Problemas para descargar con Mozilla, EDGE? Deshabilita la opción "Abrir vinculos en una pestaña nueva" tal como lo muestra ésta imagen.

Vuelven (2017) REMUX 1080p Latino-CMHDD

114 vistas

Información de Vuelven (2017) REMUX 1080p Latino-CMHDD

Datos de la película

  • Calidad: Full 1080p
  • Audio: Se especifica abajo de la Sinopsis
  • Subtitulos: Español Latino PGS
  • Resolución: 1920x1080p
  • Formato: MKV
  • Codec: H.264
  • Encoder: CinefiloCool
  • Mediainfo: Clic para Mostrar Datos Ver
  • Vuelven.2017.Bluray.REMUX.1080p.AVC.Latino-CC@CMHDD.mkv
    Format                      : Matroska
    Format version              : Version 4
    File size                   : 15.4 GiB
    Duration                    : 1 h 23 min
    Overall bit rate mode       : Variable
    Overall bit rate            : 26.2 Mb/s
    Movie name                  : Vuelven (2017) CinemaniaHDD.Net
    Encoded date                : UTC 2024-04-02 02:59:16
    Writing application         : mkvmerge v56.1.0 ('My Friend') 64-bit
    Writing library             : libebml v1.4.2 + libmatroska v1.6.4
    Cover                       : Yes
    Attachments                 : CINEMANIAHD.png / cover.jpg

    Video
    ID                          : 1
    Format                      : AVC
    Format/Info                 : Advanced Video Codec
    Format profile              : High@L4.1
    Format settings             : CABAC / 4 Ref Frames
    Format settings, CABAC      : Yes
    Format settings, Reference  : 4 frames
    Codec ID                    : V_MPEG4/ISO/AVC
    Duration                    : 1 h 23 min
    Bit rate mode               : Variable
    Bit rate                    : 20.7 Mb/s
    Maximum bit rate            : 36.0 Mb/s
    Width                       : 1 920 pixels
    Height                      : 1 080 pixels
    Display aspect ratio        : 16:9
    Frame rate mode             : Constant
    Frame rate                  : 23.976 (23976/1000) FPS
    Original frame rate         : 23.976 (24000/1001) FPS
    Color space                 : YUV
    Chroma subsampling          : 4:2:0
    Bit depth                   : 8 bits
    Scan type                   : Progressive
    Bits/(Pixel*Frame)          : 0.417
    Stream size                 : 12.1 GiB (79%)
    Title                       : REMUX HD1080p [CinemaniaHDD]
    Default                     : Yes
    Forced                      : Yes

    Audio #1
    ID                          : 2
    Format                      : DTS
    Format/Info                 : Digital Theater Systems
    Codec ID                    : A_DTS
    Duration                    : 1 h 23 min
    Bit rate mode               : Constant
    Bit rate                    : 1 509 kb/s
    Channel(s)                  : 6 channels
    Channel layout              : C L R Ls Rs LFE
    Sampling rate               : 48.0 kHz
    Frame rate                  : 93.750 FPS (512 SPF)
    Bit depth                   : 24 bits
    Compression mode            : Lossy
    Stream size                 : 905 MiB (6%)
    Title                       : Español Latino Core DTS [CinemaniaHDD]
    Language                    : Spanish
    Default                     : Yes
    Forced                      : Yes

    Audio #2
    ID                          : 3
    ID in the original source m : 4352 (0x1100)
    Format                      : DTS XLL
    Format/Info                 : Digital Theater Systems
    Commercial name             : DTS-HD Master Audio
    Codec ID                    : A_DTS
    Duration                    : 1 h 23 min
    Bit rate mode               : Variable
    Bit rate                    : 3 984 kb/s
    Channel(s)                  : 6 channels
    Channel layout              : C L R Ls Rs LFE
    Sampling rate               : 48.0 kHz
    Frame rate                  : 93.750 FPS (512 SPF)
    Bit depth                   : 24 bits
    Compression mode            : Lossless
    Stream size                 : 2.33 GiB (15%)
    Title                       : Español Latino [CinemaniaHDD]
    Language                    : Spanish
    Default                     : No
    Forced                      : Yes
    Original source medium      : Blu-ray

    Text
    ID                          : 4
    ID in the original source m : 4609 (0x1201)
    Format                      : PGS
    Muxing mode                 : zlib
    Codec ID                    : S_HDMV/PGS
    Codec ID/Info               : Picture based subtitle format used on BDs/HD-DVDs
    Duration                    : 1 h 15 min
    Bit rate                    : 14.3 kb/s
    Count of elements           : 1518
    Stream size                 : 7.72 MiB (0%)
    Title                       : Español  [CinemaniaHDD]
    Language                    : Spanish
    Default                     : Yes
    Forced                      : Yes
    Original source medium      : Blu-ray

    Menu
    00:00:00.000                : Chapter 01
    00:06:53.287                : Chapter 02
    00:17:40.392                : Chapter 03
    00:30:42.715                : Chapter 04
    00:41:51.967                : Chapter 05
    00:53:12.272                : Chapter 06
    01:05:20.458                : Chapter 07
    01:17:01.116                : Chapter 08

  • Peso: 15.4 GiB

Sinopsis

Descargar Vuelven (2017) REMUX 1080p Latino-CMHDD. Estrella tiene 10 años y tres deseos: el primero es que su madre desaparecida vuelva. Y se le cumple; pero está muerta y la sigue a todas partes. Aterrada, Estrella trata de escapar, uniéndose a una banda de niños huérfanos de la violencia. Muy pronto aprende que, en realidad, los muertos nunca se dejan atrás, y que cuando se vive en medio de la brutalidad y la violencia, si bien los deseos nunca salen como el corazón quisiera, sólo los guerreros sobreviven.

Audio Español Latino DTS-HD + DTS 5.1 Bluray

Ficha técnica

Video trailer de la película

Enlaces de descarga

Rip de Bluray

Descargar Vuelven (2017) REMUX 1080p Latino-CMHDD


Aportes de DPeliculasHDmega la pass es:dpeliculashdmega.org Aportes de CinemaniaHD la pass es:cinemaniahdd.com Aportes recientes:cinemaniahdd.net
Guardado en : Drama , Fantasía , Remux , Suspenso , Terror

Películas relacionadas

  • Amor, Mentiras y Sangre (2024) REMUX 1080p Latino

    Amor, Mentiras y Sangre (2024) REMUX 1080p Latino

    2024
    Amor, Mentiras y Sangre (2024) REMUX 1080p Latino

    1h 44m 2024

    Descargar Amor, Mentiras y Sangre (2024) REMUX 1080p Latino. Jackie está decidida a triunfar como culturista...

    Director: William Merritt Thomas

    Género: Crimen

    Actores: Tait Fletcher

  • Amor, Mentiras y Sangre (2024) HD 1080p Latino

    Amor, Mentiras y Sangre (2024) HD 1080p Latino

    2024
    Amor, Mentiras y Sangre (2024) HD 1080p Latino

    1h 44m 2024

    Descargar Amor, Mentiras y Sangre (2024) HD 1080p Latino. Jackie está decidida a triunfar como culturista...

    Director: William Merritt Thomas

    Género: Crimen

    Actores: Tait Fletcher

  • Seven Pounds (2008) REMUX 1080p Latino – CMHDD

    Seven Pounds (2008) REMUX 1080p Latino – CMHDD

    2008
    Seven Pounds (2008) REMUX 1080p Latino – CMHDD

    2h 3m 2008

    Ben Thomas es un inspector de Hacienda que comienza a contactar con determinadas personas con la aparente...

    Director: Paul Schneider

    Género: Drama

    Actores: Woody Harrelson

descargar Vuelven (2017) REMUX 1080p Latino-CMHDD Full 1080p 1080p gratis, Vuelven (2017) REMUX 1080p Latino-CMHDD Full 1080p mega 1 link, Vuelven (2017) REMUX 1080p Latino-CMHDD Full 1080p pelicula completa, descargar Vuelven (2017) REMUX 1080p Latino-CMHDD Full 1080p gratis en mega.

Vuelven (2017) REMUX 1080p Latino-CMHDD pelicula full hd, Vuelven (2017) REMUX 1080p Latino-CMHDD mega latino, Vuelven (2017) REMUX 1080p Latino-CMHDD 4k latino, Vuelven (2017) REMUX 1080p Latino-CMHDD pelicula completa, Vuelven (2017) REMUX 1080p Latino-CMHDD descargar gratis, descargar Vuelven (2017) REMUX 1080p Latino-CMHDD pelicula latino, Vuelven (2017) REMUX 1080p Latino-CMHDD 1 link mega, Vuelven (2017) REMUX 1080p Latino-CMHDD 1 link google drive, Vuelven (2017) REMUX 1080p Latino-CMHDD hd 1080p latino.
Comentarios 0