×

¿Problemas para descargar con Mozilla, EDGE? Deshabilita la opción "Abrir vinculos en una pestaña nueva" tal como lo muestra ésta imagen.

Vuelven (2017) Full HD 1080p Latino-CMHDD

144 vistas

Información de Vuelven (2017) Full HD 1080p Latino-CMHDD

Datos de la película

  • Calidad: Full 1080p
  • Audio: Español Latino DTS 5.1 BLURAY
  • Subtitulos: Español Latino PGS
  • Resolución: 1920x1080p
  • Formato: MKV
  • Codec: H.264
  • Encoder: CinefiloCool
  • Mediainfo: Clic para Mostrar Datos Ver
  • Vuelven.2017.Bluray.FullHD.1080p.x264.Latino-CC@CMHDD.mkv
    Format                      : Matroska
    Format version              : Version 4
    File size                   : 2.33 GiB
    Duration                    : 1 h 23 min
    Overall bit rate            : 3 984 kb/s
    Movie name                  : Vuelven (2017) CinemaniaHDD.Net
    Encoded date                : UTC 2024-04-02 03:02:25
    Writing application         : mkvmerge v56.1.0 ('My Friend') 64-bit
    Writing library             : libebml v1.4.2 + libmatroska v1.6.4
    Cover                       : Yes
    Attachments                 : CINEMANIAHD.png / cover.jpg

    Video
    ID                          : 1
    Format                      : AVC
    Format/Info                 : Advanced Video Codec
    Format profile              : High@L4.1
    Format settings             : CABAC / 4 Ref Frames
    Format settings, CABAC      : Yes
    Format settings, Reference  : 4 frames
    Codec ID                    : V_MPEG4/ISO/AVC
    Duration                    : 1 h 23 min
    Bit rate                    : 2 472 kb/s
    Width                       : 1 920 pixels
    Height                      : 1 080 pixels
    Display aspect ratio        : 16:9
    Frame rate mode             : Constant
    Frame rate                  : 23.976 (24000/1001) FPS
    Color space                 : YUV
    Chroma subsampling          : 4:2:0
    Bit depth                   : 8 bits
    Scan type                   : Progressive
    Bits/(Pixel*Frame)          : 0.050
    Stream size                 : 1.45 GiB (62%)
    Title                       : Full HD1080p [CinemaniaHDD]
    Writing library             : x264 core 163 r3059 b684ebe0
    Encoding settings           : cabac=1 / ref=4 / deblock=1:0:0 / analyse=0x3:0x133 / me=tesa / subme=11 / psy=1 / psy_rd=1.00:0.00 / mixed_ref=1 / me_range=24 / chroma_me=1 / trellis=2 / 8x8dct=1 / cqm=0 / deadzone=21,11 / fast_pskip=0 / chroma_qp_offset=-2 / threads=24 / lookahead_threads=6 / sliced_threads=0 / nr=0 / decimate=1 / interlaced=0 / bluray_compat=0 / constrained_intra=0 / bframes=16 / b_pyramid=2 / b_adapt=2 / b_bias=0 / direct=3 / weightb=1 / open_gop=0 / weightp=2 / keyint=240 / keyint_min=24 / scenecut=40 / intra_refresh=0 / rc_lookahead=60 / rc=crf / mbtree=1 / crf=19.0 / qcomp=0.60 / qpmin=0 / qpmax=69 / qpstep=4 / vbv_maxrate=62500 / vbv_bufsize=78125 / crf_max=0.0 / nal_hrd=none / filler=0 / ip_ratio=1.40 / aq=1:1.00
    Default                     : Yes
    Forced                      : Yes
    Color range                 : Limited
    Color primaries             : BT.709
    Transfer characteristics    : BT.709
    Matrix coefficients         : BT.709

    Audio
    ID                          : 2
    Format                      : DTS
    Format/Info                 : Digital Theater Systems
    Codec ID                    : A_DTS
    Duration                    : 1 h 23 min
    Bit rate mode               : Constant
    Bit rate                    : 1 509 kb/s
    Channel(s)                  : 6 channels
    Channel layout              : C L R Ls Rs LFE
    Sampling rate               : 48.0 kHz
    Frame rate                  : 93.750 FPS (512 SPF)
    Bit depth                   : 24 bits
    Compression mode            : Lossy
    Stream size                 : 905 MiB (38%)
    Title                       : Español Latino Core DTS [CinemaniaHDD]
    Language                    : Spanish
    Default                     : Yes
    Forced                      : Yes

    Menu
    00:00:00.000                : Chapter 01
    00:06:53.287                : Chapter 02
    00:17:40.392                : Chapter 03
    00:30:42.715                : Chapter 04
    00:41:51.967                : Chapter 05
    00:53:12.272                : Chapter 06
    01:05:20.458                : Chapter 07
    01:17:01.116                : Chapter 08

  • Peso: 2.33 GiB

Sinopsis

Descargar Vuelven (2017) Full HD 1080p Latino-CMHDD. Estrella tiene 10 años y tres deseos: el primero es que su madre desaparecida vuelva. Y se le cumple; pero está muerta y la sigue a todas partes. Aterrada, Estrella trata de escapar, uniéndose a una banda de niños huérfanos de la violencia. Muy pronto aprende que, en realidad, los muertos nunca se dejan atrás, y que cuando se vive en medio de la brutalidad y la violencia, si bien los deseos nunca salen como el corazón quisiera, sólo los guerreros sobreviven.

Ficha técnica

Video trailer de la película

Enlaces de descarga

Rip de Bluray

Descargar Vuelven (2017) Full HD 1080p Latino-CMHDD




Aportes de DPeliculasHDmega la pass es:dpeliculashdmega.org Aportes de CinemaniaHD la pass es:cinemaniahdd.com Aportes recientes:cinemaniahdd.net

Películas relacionadas

descargar Vuelven (2017) Full HD 1080p Latino-CMHDD Full 1080p 1080p gratis, Vuelven (2017) Full HD 1080p Latino-CMHDD Full 1080p mega 1 link, Vuelven (2017) Full HD 1080p Latino-CMHDD Full 1080p pelicula completa, descargar Vuelven (2017) Full HD 1080p Latino-CMHDD Full 1080p gratis en mega.

Vuelven (2017) Full HD 1080p Latino-CMHDD pelicula full hd, Vuelven (2017) Full HD 1080p Latino-CMHDD mega latino, Vuelven (2017) Full HD 1080p Latino-CMHDD 4k latino, Vuelven (2017) Full HD 1080p Latino-CMHDD pelicula completa, Vuelven (2017) Full HD 1080p Latino-CMHDD descargar gratis, descargar Vuelven (2017) Full HD 1080p Latino-CMHDD pelicula latino, Vuelven (2017) Full HD 1080p Latino-CMHDD 1 link mega, Vuelven (2017) Full HD 1080p Latino-CMHDD 1 link google drive, Vuelven (2017) Full HD 1080p Latino-CMHDD hd 1080p latino.
Comentarios 0