Vuelo 93 (2006) Full 1080p Latino

2.379 vistas

Información de Vuelo 93 (2006) Full 1080p Latino

Datos de la película

  • Calidad: Full 1080p
  • Audio: Español Latino DTS 5.1 BLURAY - Ingles DTS 5.1 BLURAY
  • Subtitulos: Español Latino SRT- FORZADOS SRT
  • Resolución: 1920x1080p
  • Formato: MKV
  • Codec: H.264
  • Encoder: Dracarys
  • Mediainfo: Clic para Mostrar Datos Ver
  • Format                      : Matroska
    Format version              : Version 4
    File size                   : 8.37 GiB
    Duration                    : 1 h 50 min
    Overall bit rate            : 10.8 Mb/s
    Movie name                  : CinemaniaHDD.net
    Encoded date                : UTC 2019-05-19 22:13:38
    Writing application         : mkvmerge v30.1.0 ('Forever And More') 64-bit
    Writing library             : libebml v1.3.6 + libmatroska v1.4.9 / Lavf58.20.100

    Video
    ID                          : 1
    Format                      : AVC
    Format/Info                 : Advanced Video Codec
    Format profile              : High@L4.1
    Format settings             : CABAC / 4 Ref Frames
    Format settings, CABAC      : Yes
    Format settings, ReFrames   : 4 frames
    Codec ID                    : V_MPEG4/ISO/AVC
    Duration                    : 1 h 50 min
    Bit rate                    : 8 516 kb/s
    Width                       : 1 920 pixels
    Height                      : 1 080 pixels
    Display aspect ratio        : 16:9
    Frame rate mode             : Constant
    Frame rate                  : 23.976 (24000/1001) FPS
    Color space                 : YUV
    Chroma subsampling          : 4:2:0
    Bit depth                   : 8 bits
    Scan type                   : Progressive
    Bits/(Pixel*Frame)          : 0.171
    Stream size                 : 6.59 GiB (79%)
    Writing library             : x264 core 157 r2935 545de2f
    Encoding settings           : cabac=1 / ref=4 / deblock=1:0:0 / analyse=0x3:0x133 / me=tesa / subme=11 / psy=1 / psy_rd=1.00:0.00 / mixed_ref=1 / me_range=24 / chroma_me=1 / trellis=2 / 8x8dct=1 / cqm=0 / deadzone=21,11 / fast_pskip=0 / chroma_qp_offset=-2 / threads=34 / lookahead_threads=8 / sliced_threads=0 / nr=0 / decimate=1 / interlaced=0 / bluray_compat=0 / constrained_intra=0 / bframes=16 / b_pyramid=2 / b_adapt=2 / b_bias=0 / direct=3 / weightb=1 / open_gop=0 / weightp=2 / keyint=240 / keyint_min=24 / scenecut=40 / intra_refresh=0 / rc_lookahead=60 / rc=crf / mbtree=1 / crf=20.0 / qcomp=0.60 / qpmin=0 / qpmax=69 / qpstep=4 / vbv_maxrate=62500 / vbv_bufsize=78125 / crf_max=0.0 / nal_hrd=none / filler=0 / ip_ratio=1.40 / aq=1:1.00
    Language                    : English
    Default                     : Yes
    Forced                      : No
    Color range                 : Limited
    Color primaries             : BT.709
    Transfer characteristics    : BT.709
    Matrix coefficients         : BT.709

    Audio #1
    ID                          : 2
    Format                      : DTS
    Format/Info                 : Digital Theater Systems
    Codec ID                    : A_DTS
    Duration                    : 1 h 50 min
    Bit rate mode               : Constant
    Bit rate                    : 768 kb/s
    Channel(s)                  : 6 channels
    Channel layout              : C L R Ls Rs LFE
    Sampling rate               : 48.0 kHz
    Frame rate                  : 93.750 FPS (512 SPF)
    Bit depth                   : 24 bits
    Compression mode            : Lossy
    Stream size                 : 609 MiB (7%)
    Language                    : Spanish
    Default                     : Yes
    Forced                      : Yes

    Audio #2
    ID                          : 3
    Format                      : DTS
    Format/Info                 : Digital Theater Systems
    Codec ID                    : A_DTS
    Duration                    : 1 h 50 min
    Bit rate mode               : Constant
    Bit rate                    : 1 509 kb/s
    Channel(s)                  : 6 channels
    Channel layout              : C L R Ls Rs LFE
    Sampling rate               : 48.0 kHz
    Frame rate                  : 93.750 FPS (512 SPF)
    Bit depth                   : 24 bits
    Compression mode            : Lossy
    Stream size                 : 1.17 GiB (14%)
    Language                    : English
    Default                     : No
    Forced                      : No

    Text #1
    ID                          : 4
    Format                      : PGS
    Muxing mode                 : zlib
    Codec ID                    : S_HDMV/PGS
    Codec ID/Info               : Picture based subtitle format used on BDs/HD-DVDs
    Duration                    : 1 h 41 min
    Bit rate                    : 52.4 kb/s
    Count of elements           : 3329
    Stream size                 : 37.9 MiB (0%)
    Title                       : PGS-Completos
    Language                    : Spanish
    Default                     : No
    Forced                      : No

    Text #2
    ID                          : 5
    Format                      : PGS
    Muxing mode                 : zlib
    Codec ID                    : S_HDMV/PGS
    Codec ID/Info               : Picture based subtitle format used on BDs/HD-DVDs
    Duration                    : 1 h 28 min
    Bit rate                    : 1 135 b/s
    Count of elements           : 86
    Stream size                 : 733 KiB (0%)
    Title                       : PGS-Forzados
    Language                    : Spanish
    Default                     : No
    Forced                      : No

    Text #3
    ID                          : 6
    Format                      : UTF-8
    Codec ID                    : S_TEXT/UTF8
    Codec ID/Info               : UTF-8 Plain Text
    Duration                    : 1 h 41 min
    Bit rate                    : 83 b/s
    Count of elements           : 1661
    Stream size                 : 62.3 KiB (0%)
    Title                       : SRT-Completos
    Language                    : Spanish
    Default                     : No
    Forced                      : No

    Text #4
    ID                          : 7
    Format                      : UTF-8
    Codec ID                    : S_TEXT/UTF8
    Codec ID/Info               : UTF-8 Plain Text
    Duration                    : 1 h 28 min
    Bit rate                    : 1 b/s
    Count of elements           : 43
    Stream size                 : 1.09 KiB (0%)
    Title                       : SRT-Completos
    Language                    : Spanish
    Default                     : Yes
    Forced                      : Yes

  • Peso: 8.37 GiB

Sinopsis

El 11 de septiembre de 2001 cuatro aviones fueron secuestrados. Tres alcanzaron su objetivo, pero el cuarto no. Relato de la tragedia por medio de una meticulosa recreación de los acontecimientos que rodearon al vuelo 93 de United Airlines con la esperanza de tener una visión más amplia de los hechos. La película, realizada con el apoyo de las familias de los pasajeros que viajaban a bordo del avión, relata en tiempo real la dramática historia de lo que ocurrió en el aire y en tierra, mientras los pasajeros, la tripulación, los controladores aéreos y los centros militares intentaban entender y solucionar una crisis inimaginable.

Ficha técnica

Video trailer de la película

Enlaces de descarga

Rip de Bluray

Descargar Vuelo 93 (2006) Full 1080p Latino




Aportes de DPeliculasHDmega la pass es:dpeliculashdmega.org Aportes de CinemaniaHD la pass es:cinemaniahdd.com

Películas relacionadas

  • Eternals (2021) HD 1080p Latino

    Eternals (2021) HD 1080p Latino

    2021
    Eternals (2021) HD 1080p Latino

    2h 36m 2021

    Descargar Eternals (2021) HD 1080p Latino. Hace millones de años, los seres cósmicos conocidos como...

    Director: Simon Warnock

    Género: Acción

    Actores: Zain Al Rafeea

  • Eternals (2021) PLACEBO Full HD 1080p Latino

    Eternals (2021) PLACEBO Full HD 1080p Latino

    2021
    Eternals (2021) PLACEBO Full HD 1080p Latino

    2h 36m 2021

    Descargar Eternals (2021) PLACEBO Full HD 1080p Latino. Hace millones de años, los seres cósmicos conocidos...

    Director: Simon Warnock

    Género: Acción

    Actores: Zain Al Rafeea

  • Eternals (2021) REMUX 1080p Latino

    Eternals (2021) REMUX 1080p Latino

    2021
    Eternals (2021) REMUX 1080p Latino

    2h 36m 2021

    Descargar Eternals (2021) REMUX 1080p Latino. Hace millones de años, los seres cósmicos conocidos como...

    Director: Simon Warnock

    Género: Acción

    Actores: Zain Al Rafeea

Vuelo 93 (2006) Full 1080p Latino pelicula full hd, Vuelo 93 (2006) Full 1080p Latino mega latino, Vuelo 93 (2006) Full 1080p Latino 4k latino, Vuelo 93 (2006) Full 1080p Latino pelicula completa, Vuelo 93 (2006) Full 1080p Latino descargar gratis, descargar Vuelo 93 (2006) Full 1080p Latino pelicula latino, Vuelo 93 (2006) Full 1080p Latino 1 link mega, Vuelo 93 (2006) Full 1080p Latino 1 link google drive, Vuelo 93 (2006) Full 1080p Latino hd 1080p latino.
Comentarios 0