×

¿Problemas para descargar con Mozilla, EDGE? Deshabilita la opción "Abrir vinculos en una pestaña nueva" tal como lo muestra ésta imagen.

Vox Lux: El precio de la fama (2018) Full HD 1080p Latino

992 vistas

Información de Vox Lux: El precio de la fama (2018) Full HD 1080p Latino

Datos de la película

  • Calidad: Full 1080p
  • Audio: Se especifica abajo de la Sinopsis
  • Subtitulos: Español Latino SRT- FORZADOS SRT
  • Resolución: 1920x1080p
  • Formato: MKV
  • Codec: H.264
  • Encoder: CinefiloCool
  • Mediainfo: Clic para Mostrar Datos Ver
  • Vox Lux - El precio de la fama (2018) Full HD 1080p Latino-CMHDD.mkv
    Format                      : Matroska
    Format version              : Version 4
    File size                   : 7.70 GiB
    Duration                    : 1 h 54 min
    Overall bit rate            : 9 622 kb/s
    Movie name                  : Vox Lux (2018)  CinemaniaHDD.Net
    Encoded date                : UTC 2019-10-04 02:55:40
    Writing application         : mkvmerge v35.0.0 ('All The Love In The World') 64-bit
    Writing library             : libebml v1.3.9 + libmatroska v1.5.2
    Attachments                 : CINEMANIAHD.png

    Video
    ID                          : 1
    Format                      : AVC
    Format/Info                 : Advanced Video Codec
    Format profile              : High@L4.1
    Format settings             : CABAC / 4 Ref Frames
    Format settings, CABAC      : Yes
    Format settings, ReFrames   : 4 frames
    Codec ID                    : V_MPEG4/ISO/AVC
    Duration                    : 1 h 54 min
    Bit rate                    : 7 856 kb/s
    Width                       : 1 920 pixels
    Height                      : 1 080 pixels
    Display aspect ratio        : 16:9
    Frame rate mode             : Constant
    Frame rate                  : 23.976 (24000/1001) FPS
    Color space                 : YUV
    Chroma subsampling          : 4:2:0
    Bit depth                   : 8 bits
    Scan type                   : Progressive
    Bits/(Pixel*Frame)          : 0.158
    Stream size                 : 6.28 GiB (82%)
    Title                       : Full HD1080p [Bluray]
    Writing library             : x264 core 157 r2935 545de2f
    Encoding settings           : cabac=1 / ref=4 / deblock=1:-1:-1 / analyse=0x3:0x133 / me=tesa / subme=11 / psy=1 / psy_rd=1.00:0.15 / mixed_ref=1 / me_range=24 / chroma_me=1 / trellis=2 / 8x8dct=1 / cqm=0 / deadzone=21,11 / fast_pskip=0 / chroma_qp_offset=-3 / threads=34 / lookahead_threads=8 / sliced_threads=0 / nr=0 / decimate=1 / interlaced=0 / bluray_compat=0 / constrained_intra=0 / bframes=16 / b_pyramid=2 / b_adapt=2 / b_bias=0 / direct=3 / weightb=1 / open_gop=0 / weightp=2 / keyint=240 / keyint_min=24 / scenecut=40 / intra_refresh=0 / rc_lookahead=60 / rc=crf / mbtree=1 / crf=20.0 / qcomp=0.60 / qpmin=0 / qpmax=69 / qpstep=4 / vbv_maxrate=62500 / vbv_bufsize=78125 / crf_max=0.0 / nal_hrd=none / filler=0 / ip_ratio=1.40 / aq=1:1.00
    Default                     : Yes
    Forced                      : Yes
    Color range                 : Limited
    Color primaries             : BT.709
    Transfer characteristics    : BT.709
    Matrix coefficients         : BT.709

    Audio #1
    ID                          : 2
    Format                      : AC-3
    Format/Info                 : Audio Coding 3
    Commercial name             : Dolby Digital
    Codec ID                    : A_AC3
    Duration                    : 1 h 54 min
    Bit rate mode               : Constant
    Bit rate                    : 256 kb/s
    Channel(s)                  : 2 channels
    Channel layout              : L R
    Sampling rate               : 48.0 kHz
    Frame rate                  : 31.250 FPS (1536 SPF)
    Bit depth                   : 16 bits
    Compression mode            : Lossy
    Stream size                 : 210 MiB (3%)
    Title                       : AC3_2.0_Capt_Esp
    Language                    : Spanish
    Service kind                : Complete Main
    Default                     : Yes
    Forced                      : Yes

    Audio #2
    ID                          : 3
    Format                      : DTS
    Format/Info                 : Digital Theater Systems
    Codec ID                    : A_DTS
    Duration                    : 1 h 54 min
    Bit rate mode               : Constant
    Bit rate                    : 1 509 kb/s
    Channel(s)                  : 6 channels
    Channel layout              : C L R Ls Rs LFE
    Sampling rate               : 48.0 kHz
    Frame rate                  : 93.750 FPS (512 SPF)
    Bit depth                   : 24 bits
    Compression mode            : Lossy
    Stream size                 : 1.21 GiB (16%)
    Title                       : DTS_5.1_Bluray_Eng
    Language                    : English
    Default                     : No
    Forced                      : No

    Text #1
    ID                          : 4
    Format                      : UTF-8
    Codec ID                    : S_TEXT/UTF8
    Codec ID/Info               : UTF-8 Plain Text
    Duration                    : 1 h 47 min
    Bit rate                    : 0 b/s
    Count of elements           : 13
    Stream size                 : 286 Bytes (0%)
    Title                       : Sub_Forzados
    Language                    : Spanish
    Default                     : Yes
    Forced                      : Yes

    Text #2
    ID                          : 5
    Format                      : UTF-8
    Codec ID                    : S_TEXT/UTF8
    Codec ID/Info               : UTF-8 Plain Text
    Duration                    : 1 h 48 min
    Bit rate                    : 81 b/s
    Count of elements           : 1680
    Stream size                 : 65.4 KiB (0%)
    Title                       : Sub_Esp
    Language                    : Spanish
    Default                     : No
    Forced                      : No

    Text #3
    ID                          : 6
    Format                      : PGS
    Muxing mode                 : zlib
    Codec ID                    : S_HDMV/PGS
    Codec ID/Info               : Picture based subtitle format used on BDs/HD-DVDs
    Duration                    : 1 h 48 min
    Bit rate                    : 37.0 kb/s
    Count of elements           : 3474
    Stream size                 : 28.8 MiB (0%)
    Title                       : Sub_Eng [PGS]
    Language                    : English
    Default                     : No
    Forced                      : No

    Menu
    00:00:00.000                : :Chapter 1
    00:09:16.931                : :Chapter 2
    00:17:29.173                : :Chapter 3
    00:26:58.242                : :Chapter 4
    00:36:10.960                : :Chapter 5
    00:49:39.852                : :Chapter 6
    01:11:39.128                : :Chapter 7
    01:16:52.441                : :Chapter 8
    01:24:37.322                : :Chapter 9
    01:31:45.959                : :Chapter 10
    01:36:05.343                : :Chapter 11
    01:49:42.868                : :Chapter 12

  • Peso: 7.70 GiB

Sinopsis

Descargar Vox Lux: El precio de la fama (2018) Full HD 1080p Latino. Una cantante de pop consigue hacerse famosa gracias a unas extrañas e insospechadas circunstancias. Su nombre artístico es Celeste y a lo largo de 15 años, esta joven vivió una auténtica odisea: su carrera musical nació de las cenizas de una importante tragedia nacional y poco después se convirtió en una gran estrella de forma inesperada, pero… ¿a qué precio?

Audio Español Latino AC3 2.0 Capturado – Ingles DTS 5.1 Bluray

Ficha técnica

Video trailer de la película

Enlaces de descarga

Rip de Bluray

Descargar Vox Lux: El precio de la fama (2018) Full HD 1080p Latino




Aportes de DPeliculasHDmega la pass es:dpeliculashdmega.org Aportes de CinemaniaHD la pass es:cinemaniahdd.com

Películas relacionadas

  • Togo (2022) NF WEB-DL 1080p Latino

    Togo (2022) NF WEB-DL 1080p Latino

    2022
    Togo (2022) NF WEB-DL 1080p Latino

    1h 35m 2022

    Descargar Togo (2022) NF WEB-DL 1080p Latino. Los narcos de poca monta están copando las calles de Montevideo...

    Director: Adrián Caetano

    Género: Crimen

    Actores: Tito Prieto

  • El Ultimo Juego (2021) WEB-DL 1080p Latino

    El Ultimo Juego (2021) WEB-DL 1080p Latino

    2021
    El Ultimo Juego (2021) WEB-DL 1080p Latino

    1h 21m 2021

    Descargar El Ultimo Juego (2021) WEB-DL 1080p Latino. 6 extraños se despiertan dentro de una habitación...

    Director: John David Moffat IV

    Género: Drama

    Actores: Yasmin Irvine

descargar Vox Lux: El precio de la fama (2018) Full HD 1080p Latino Full 1080p 1080p gratis, Vox Lux: El precio de la fama (2018) Full HD 1080p Latino Full 1080p mega 1 link, Vox Lux: El precio de la fama (2018) Full HD 1080p Latino Full 1080p pelicula completa, descargar Vox Lux: El precio de la fama (2018) Full HD 1080p Latino Full 1080p gratis en mega.

Vox Lux: El precio de la fama (2018) Full HD 1080p Latino pelicula full hd, Vox Lux: El precio de la fama (2018) Full HD 1080p Latino mega latino, Vox Lux: El precio de la fama (2018) Full HD 1080p Latino 4k latino, Vox Lux: El precio de la fama (2018) Full HD 1080p Latino pelicula completa, Vox Lux: El precio de la fama (2018) Full HD 1080p Latino descargar gratis, descargar Vox Lux: El precio de la fama (2018) Full HD 1080p Latino pelicula latino, Vox Lux: El precio de la fama (2018) Full HD 1080p Latino 1 link mega, Vox Lux: El precio de la fama (2018) Full HD 1080p Latino 1 link google drive, Vox Lux: El precio de la fama (2018) Full HD 1080p Latino hd 1080p latino.
Comentarios 0