×

¿Problemas para descargar con Mozilla, EDGE? Deshabilita la opción "Abrir vinculos en una pestaña nueva" tal como lo muestra ésta imagen.

Volcano (1997) REMUX 1080p Latino – CMHDD

144 vistas

Información de Volcano (1997) REMUX 1080p Latino – CMHDD

Datos de la película

  • Calidad: Full 1080p
  • Audio: Español Latino AC3 2.0 BLURAY - Ingles DTS 5.1 BLURAY
  • Subtitulos: Español Latino SRT- FORZADOS SRT
  • Resolución: 19201080p
  • Formato: MKV
  • Codec: H.264
  • Encoder: Dracarys
  • Mediainfo: Clic para Mostrar Datos Ver
  • Format                      : Matroska
    Format version              : Version 4
    File size                   : 18.5 GiB
    Duration                    : 1 h 43 min
    Overall bit rate mode       : Variable
    Overall bit rate            : 25.5 Mb/s
    Movie name                  : Volcano (1997) REMUX 1080p Latino - CMHDD
    Encoded date                : UTC 2023-12-09 22:18:05
    Writing application         : mkvmerge v47.0.0 ('Black Flag') 64-bit
    Writing library             : libebml v1.3.10 + libmatroska v1.5.2

    Video
    ID                          : 1
    Format                      : AVC
    Format/Info                 : Advanced Video Codec
    Format profile              : High@L4.1
    Format settings             : CABAC / 4 Ref Frames
    Format settings, CABAC      : Yes
    Format settings, Reference  : 4 frames
    Codec ID                    : V_MPEG4/ISO/AVC
    Duration                    : 1 h 43 min
    Bit rate mode               : Variable
    Bit rate                    : 23.0 Mb/s
    Maximum bit rate            : 40.0 Mb/s
    Width                       : 1 920 pixels
    Height                      : 1 080 pixels
    Display aspect ratio        : 16:9
    Frame rate mode             : Constant
    Frame rate                  : 23.976 (24000/1001) FPS
    Color space                 : YUV
    Chroma subsampling          : 4:2:0
    Bit depth                   : 8 bits
    Scan type                   : Progressive
    Bits/(Pixel*Frame)          : 0.463
    Stream size                 : 16.6 GiB (90%)
    Writing library             : x264 core 148 r2665 a01e339
    Encoding settings           : cabac=1 / ref=4 / deblock=1:-1:-1 / analyse=0x3:0x133 / me=umh / subme=10 / psy=1 / psy_rd=1.00:0.15 / mixed_ref=1 / me_range=24 / chroma_me=1 / trellis=2 / 8x8dct=1 / cqm=0 / deadzone=21,11 / fast_pskip=1 / chroma_qp_offset=-3 / threads=9 / lookahead_threads=1 / sliced_threads=0 / slices=4 / nr=0 / decimate=1 / interlaced=0 / bluray_compat=1 / constrained_intra=0 / bframes=3 / b_pyramid=0 / b_adapt=2 / b_bias=0 / direct=3 / weightb=1 / open_gop=1 / weightp=1 / keyint=24 / keyint_min=1 / scenecut=40 / intra_refresh=0 / rc_lookahead=24 / rc=2pass / mbtree=1 / bitrate=23000 / ratetol=1.0 / qcomp=0.60 / qpmin=0 / qpmax=69 / qpstep=4 / cplxblur=20.0 / qblur=0.5 / vbv_maxrate=40000 / vbv_bufsize=30000 / nal_hrd=vbr / filler=0 / ip_ratio=1.40 / aq=1:1.00
    Default                     : Yes
    Forced                      : No
    Color range                 : Limited
    Color primaries             : BT.709
    Transfer characteristics    : BT.709
    Matrix coefficients         : BT.709

    Audio #1
    ID                          : 2
    Format                      : AC-3
    Format/Info                 : Audio Coding 3
    Commercial name             : Dolby Digital
    Codec ID                    : A_AC3
    Duration                    : 1 h 43 min
    Bit rate mode               : Constant
    Bit rate                    : 384 kb/s
    Channel(s)                  : 2 channels
    Channel layout              : L R
    Sampling rate               : 48.0 kHz
    Frame rate                  : 31.250 FPS (1536 SPF)
    Compression mode            : Lossy
    Stream size                 : 285 MiB (2%)
    Language                    : Spanish
    Service kind                : Complete Main
    Default                     : Yes
    Forced                      : Yes

    Audio #2
    ID                          : 3
    ID in the original source m : 4353 (0x1101)
    Format                      : DTS XLL
    Format/Info                 : Digital Theater Systems
    Commercial name             : DTS-HD Master Audio
    Codec ID                    : A_DTS
    Duration                    : 1 h 43 min
    Bit rate mode               : Variable
    Bit rate                    : 2 170 kb/s
    Channel(s)                  : 6 channels
    Channel layout              : C L R Ls Rs LFE
    Sampling rate               : 48.0 kHz
    Frame rate                  : 93.750 FPS (512 SPF)
    Bit depth                   : 16 bits
    Compression mode            : Lossless
    Stream size                 : 1.57 GiB (9%)
    Language                    : English
    Default                     : No
    Forced                      : No
    Original source medium      : Blu-ray

    Text #1
    ID                          : 4
    Format                      : UTF-8
    Codec ID                    : S_TEXT/UTF8
    Codec ID/Info               : UTF-8 Plain Text
    Duration                    : 1 h 42 min
    Bit rate                    : 1 b/s
    Frame rate                  : 0.007 FPS
    Count of elements           : 43
    Stream size                 : 1.37 KiB (0%)
    Title                       : Forzados
    Language                    : Spanish
    Default                     : Yes
    Forced                      : Yes

    Text #2
    ID                          : 5
    Format                      : UTF-8
    Codec ID                    : S_TEXT/UTF8
    Codec ID/Info               : UTF-8 Plain Text
    Duration                    : 1 h 37 min
    Bit rate                    : 87 b/s
    Frame rate                  : 0.254 FPS
    Count of elements           : 1490
    Stream size                 : 63.0 KiB (0%)
    Language                    : Spanish
    Default                     : No
    Forced                      : No

    Menu
    00:00:00.000                : en:Chapter 01
    00:11:40.991                : en:Chapter 02
    00:21:47.848                : en:Chapter 03
    00:30:04.803                : en:Chapter 04
    00:42:57.408                : en:Chapter 05
    00:53:29.998                : en:Chapter 06
    01:02:27.076                : en:Chapter 07
    01:10:18.088                : en:Chapter 08
    01:21:46.067                : en:Chapter 09
    01:32:49.188                : en:Chapter 10
    01:38:08.841                : en:Chapter 11
    01:43:49.056                : en:Chapter 12

     

  • Peso: 18.5 GiB

Sinopsis

Un desastre de inimaginables proporciones amenaza la ciudad de Los Ángeles: un terremoto y el intenso calor que emana del subsuelo anuncian, sin lugar a dudas, la erupción de un volcán, lo que causaría una situación de caos sin precedentes en la ciudad. Mike Roark, director de la oficina de gestión de emergencias, con la ayuda de una sismóloga, la doctora Amy Barnes, intentará controlar la situación para evitar que el pánico se extienda.

Ficha técnica

Video trailer de la película

Enlaces de descarga

Rip de Bluray

Descargar Volcano (1997) REMUX 1080p Latino – CMHDD




Aportes de DPeliculasHDmega la pass es:dpeliculashdmega.org Aportes de CinemaniaHD la pass es:cinemaniahdd.com Aportes recientes:cinemaniahdd.net
Guardado en : Acción , Ciencia ficción , Drama , Suspenso

Películas relacionadas

descargar Volcano (1997) REMUX 1080p Latino – CMHDD Full 1080p 1080p gratis, Volcano (1997) REMUX 1080p Latino – CMHDD Full 1080p mega 1 link, Volcano (1997) REMUX 1080p Latino – CMHDD Full 1080p pelicula completa, descargar Volcano (1997) REMUX 1080p Latino – CMHDD Full 1080p gratis en mega.

Volcano (1997) REMUX 1080p Latino – CMHDD pelicula full hd, Volcano (1997) REMUX 1080p Latino – CMHDD mega latino, Volcano (1997) REMUX 1080p Latino – CMHDD 4k latino, Volcano (1997) REMUX 1080p Latino – CMHDD pelicula completa, Volcano (1997) REMUX 1080p Latino – CMHDD descargar gratis, descargar Volcano (1997) REMUX 1080p Latino – CMHDD pelicula latino, Volcano (1997) REMUX 1080p Latino – CMHDD 1 link mega, Volcano (1997) REMUX 1080p Latino – CMHDD 1 link google drive, Volcano (1997) REMUX 1080p Latino – CMHDD hd 1080p latino.
Comentarios 0