×

¿Problemas para descargar con Mozilla, EDGE? Deshabilita la opción "Abrir vinculos en una pestaña nueva" tal como lo muestra ésta imagen.

Viy 2: El Misterio Del Dragón (2019) REMUX 1080p Latino

311 vistas

Información de Viy 2: El Misterio Del Dragón (2019) REMUX 1080p Latino

Datos de la película

  • Calidad: Full 1080p
  • Audio: Español Latino DTS 5.1 BLURAY - Ingles DTS 5.1 BLURAY
  • Subtitulos: Español Latino PGS - Ingles PGS
  • Resolución: 1920x1080p
  • Formato: MKV
  • Codec: H.264
  • Encoder: Melkor
  • Mediainfo: Clic para Mostrar Datos Ver
  • Viy 2 - El Misterio Del Dragon (2019) REMUX 1080p Latino.mkv
    Format                      : Matroska
    Format version              : Version 4
    File size                   : 37.0 GiB
    Duration                    : 2 h 0 min
    Overall bit rate mode       : Variable
    Overall bit rate            : 43.9 Mb/s
    Movie name                  : Journey To China: The Mystery Of Iron Mask (2019) CinemaniaHDD.Net
    Encoded date                : UTC 2020-11-24 04:38:59
    Writing application         : mkvmerge v51.0.0 ('I Wish') 64-bit
    Writing library             : libebml v1.4.0 + libmatroska v1.6.2
    Attachments                 : CINEMANIAHD.png

    Video
    ID                          : 1
    ID in the original source m : 4113 (0x1011)
    Format                      : AVC
    Format/Info                 : Advanced Video Codec
    Format profile              : High@L4.1
    Format settings             : CABAC / 4 Ref Frames
    Format settings, CABAC      : Yes
    Format settings, Reference  : 4 frames
    Codec ID                    : V_MPEG4/ISO/AVC
    Duration                    : 2 h 0 min
    Bit rate mode               : Variable
    Bit rate                    : 34.0 Mb/s
    Maximum bit rate            : 35.5 Mb/s
    Width                       : 1 920 pixels
    Height                      : 1 080 pixels
    Display aspect ratio        : 16:9
    Frame rate mode             : Constant
    Frame rate                  : 23.976 (24000/1001) FPS
    Color space                 : YUV
    Chroma subsampling          : 4:2:0
    Bit depth                   : 8 bits
    Scan type                   : Progressive
    Bits/(Pixel*Frame)          : 0.683
    Stream size                 : 28.6 GiB (77%)
    Title                       : REMUX HD1080p [CinemaniaHDD]
    Default                     : Yes
    Forced                      : Yes
    Original source medium      : Blu-ray

    Audio #1
    ID                          : 2
    ID in the original source m : 4353 (0x1101)
    Format                      : DTS XLL
    Format/Info                 : Digital Theater Systems
    Commercial name             : DTS-HD Master Audio
    Codec ID                    : A_DTS
    Duration                    : 2 h 0 min
    Bit rate mode               : Variable
    Bit rate                    : 4 241 kb/s
    Channel(s)                  : 6 channels
    Channel layout              : C L R Ls Rs LFE
    Sampling rate               : 48.0 kHz
    Frame rate                  : 93.750 FPS (512 SPF)
    Bit depth                   : 24 bits
    Compression mode            : Lossless
    Stream size                 : 3.57 GiB (10%)
    Title                       : Español Latino [CinemaniaHDD]
    Language                    : Spanish
    Default                     : Yes
    Forced                      : Yes
    Original source medium      : Blu-ray

    Audio #2
    ID                          : 3
    ID in the original source m : 4352 (0x1100)
    Format                      : DTS XLL
    Format/Info                 : Digital Theater Systems
    Commercial name             : DTS-HD Master Audio
    Codec ID                    : A_DTS
    Duration                    : 2 h 0 min
    Bit rate mode               : Variable
    Bit rate                    : 4 173 kb/s
    Channel(s)                  : 6 channels
    Channel layout              : C L R Ls Rs LFE
    Sampling rate               : 48.0 kHz
    Frame rate                  : 93.750 FPS (512 SPF)
    Bit depth                   : 24 bits
    Compression mode            : Lossless
    Stream size                 : 3.52 GiB (9%)
    Title                       : Ingles [CinemaniaHDD]
    Language                    : English
    Default                     : No
    Forced                      : No
    Original source medium      : Blu-ray

    Audio #3
    ID                          : 4
    Format                      : DTS
    Format/Info                 : Digital Theater Systems
    Codec ID                    : A_DTS
    Duration                    : 2 h 0 min
    Bit rate mode               : Constant
    Bit rate                    : 1 509 kb/s
    Channel(s)                  : 6 channels
    Channel layout              : C L R Ls Rs LFE
    Sampling rate               : 48.0 kHz
    Frame rate                  : 93.750 FPS (512 SPF)
    Bit depth                   : 24 bits
    Compression mode            : Lossy
    Stream size                 : 1.27 GiB (3%)
    Title                       : Español Latino Core [CinemaniaHDD]
    Language                    : Spanish
    Default                     : No
    Forced                      : No

    Text #1
    ID                          : 5
    ID in the original source m : 4609 (0x1201)
    Format                      : PGS
    Muxing mode                 : zlib
    Codec ID                    : S_HDMV/PGS
    Codec ID/Info               : Picture based subtitle format used on BDs/HD-DVDs
    Duration                    : 12 min 32 s
    Bit rate                    : 4 655 b/s
    Count of elements           : 42
    Stream size                 : 428 KiB (0%)
    Title                       : Forzados-PGS [CinemaniaHDD]
    Language                    : Spanish
    Default                     : Yes
    Forced                      : Yes
    Original source medium      : Blu-ray

    Text #2
    ID                          : 6
    ID in the original source m : 4609 (0x1201)
    Format                      : PGS
    Muxing mode                 : zlib
    Codec ID                    : S_HDMV/PGS
    Codec ID/Info               : Picture based subtitle format used on BDs/HD-DVDs
    Duration                    : 1 h 58 min
    Bit rate                    : 26.0 kb/s
    Count of elements           : 2266
    Stream size                 : 22.0 MiB (0%)
    Title                       : Español-PGS [CinemaniaHDD]
    Language                    : Spanish
    Default                     : No
    Forced                      : No
    Original source medium      : Blu-ray

    Text #3
    ID                          : 7
    ID in the original source m : 4608 (0x1200)
    Format                      : PGS
    Muxing mode                 : zlib
    Codec ID                    : S_HDMV/PGS
    Codec ID/Info               : Picture based subtitle format used on BDs/HD-DVDs
    Duration                    : 1 h 52 min
    Bit rate                    : 32.3 kb/s
    Count of elements           : 2929
    Stream size                 : 25.9 MiB (0%)
    Title                       : Ingles-PGS [CinemaniaHDD]
    Language                    : English
    Default                     : No
    Forced                      : No
    Original source medium      : Blu-ray

    Text #4
    ID                          : 8
    Format                      : UTF-8
    Codec ID                    : S_TEXT/UTF8
    Codec ID/Info               : UTF-8 Plain Text
    Duration                    : 1 h 16 min
    Bit rate                    : 1 b/s
    Count of elements           : 24
    Stream size                 : 934 Bytes (0%)
    Title                       : Forzados-SRT [CinemaniaHDD]
    Language                    : Spanish
    Default                     : No
    Forced                      : No

    Text #5
    ID                          : 9
    Format                      : UTF-8
    Codec ID                    : S_TEXT/UTF8
    Codec ID/Info               : UTF-8 Plain Text
    Duration                    : 1 h 53 min
    Bit rate                    : 50 b/s
    Count of elements           : 1118
    Stream size                 : 42.5 KiB (0%)
    Title                       : Español-SRT [CinemaniaHDD]
    Language                    : Spanish
    Default                     : No
    Forced                      : No

    Menu
    00:00:00.000                : en:Chapter 01
    00:06:33.851                : en:Chapter 02
    00:15:25.049                : en:Chapter 03
    00:21:03.303                : en:Chapter 04
    00:26:21.121                : en:Chapter 05
    00:34:27.774                : en:Chapter 06
    00:39:21.108                : en:Chapter 07
    00:45:38.360                : en:Chapter 08
    00:53:41.760                : en:Chapter 09
    01:00:56.444                : en:Chapter 10
    01:07:25.416                : en:Chapter 11
    01:14:35.971                : en:Chapter 12
    01:22:15.305                : en:Chapter 13
    01:30:40.601                : en:Chapter 14
    01:38:36.911                : en:Chapter 15
    01:51:48.618                : en:Chapter 16

  • Peso: 37.0 GiB

Sinopsis

Descargar Viy 2: El Misterio Del Dragón (2019) REMUX 1080p Latino. El cartógrafo inglés Jonathan Green recibe la orden de crear un mapa de la lejana Rusia. En su largo viaje, Jonathan vivirá todo tipo de aventuras, desde enfrentamientos con extrañas criaturas y batallas con maestros en artes marciales hasta brujas milenarias ocultas en los rincones más recónditos de la legendaria China. Pero todas las pruebas parecerán un juego de niños cuando tenga que enfrentarse al mayor de los enemigos jamás creado por la magia negra: el gran Rey de los Dragones.

Ficha técnica

  • Titulo original: Тайна печати Дракона
  • Fecha de lanzamiento: 16-08-2019 (China, Russia, United States of America)
  • Director: Oleg Stepchenko
  • Género: Aventura, Fantasía, Remux

Video trailer de la película

Enlaces de descarga

Rip de Bluray

Descargar Viy 2: El Misterio Del Dragón (2019) REMUX 1080p Latino




Aportes de DPeliculasHDmega la pass es:dpeliculashdmega.org Aportes de CinemaniaHD la pass es:cinemaniahdd.com
Guardado en : Aventura , Fantasía , Remux

Películas relacionadas

  • Mi amigo el dragón (2016) Full HD 1080p Latino

    Mi amigo el dragón (2016) Full HD 1080p Latino

    2016
    Mi amigo el dragón (2016) Full HD 1080p Latino

    1h 43m 2016

    Descargar Mi amigo el dragón (2016) Full HD 1080p Latino. Durante años el Sr. Meacham, un viejo tallador...

    Director: Joe Nolan

    Género: Aventura

    Actores: William J. Rawbone

  • Mi amigo el dragón (2016) REMUX 1080p Latino

    Mi amigo el dragón (2016) REMUX 1080p Latino

    2016
    Mi amigo el dragón (2016) REMUX 1080p Latino

    1h 43m 2016

    Descargar Mi amigo el dragón (2016) REMUX 1080p Latino. Durante años el Sr. Meacham, un viejo tallador...

    Director: Joe Nolan

    Género: Aventura

    Actores: William J. Rawbone

  • El discurso del Rey (2010) REMUX 1080p Latino

    El discurso del Rey (2010) REMUX 1080p Latino

    2010
    El discurso del Rey (2010) REMUX 1080p Latino

    1h 58m 2010

    Descargar El discurso del Rey (2010) REMUX 1080p Latino. El duque de York se convirtió en rey de Gran...

    Director: Tom Hooper

    Género: Drama

    Actores: Tony Earnshaw

descargar Viy 2: El Misterio Del Dragón (2019) REMUX 1080p Latino Full 1080p 1080p gratis, Viy 2: El Misterio Del Dragón (2019) REMUX 1080p Latino Full 1080p mega 1 link, Viy 2: El Misterio Del Dragón (2019) REMUX 1080p Latino Full 1080p pelicula completa, descargar Viy 2: El Misterio Del Dragón (2019) REMUX 1080p Latino Full 1080p gratis en mega.

Viy 2: El Misterio Del Dragón (2019) REMUX 1080p Latino pelicula full hd, Viy 2: El Misterio Del Dragón (2019) REMUX 1080p Latino mega latino, Viy 2: El Misterio Del Dragón (2019) REMUX 1080p Latino 4k latino, Viy 2: El Misterio Del Dragón (2019) REMUX 1080p Latino pelicula completa, Viy 2: El Misterio Del Dragón (2019) REMUX 1080p Latino descargar gratis, descargar Viy 2: El Misterio Del Dragón (2019) REMUX 1080p Latino pelicula latino, Viy 2: El Misterio Del Dragón (2019) REMUX 1080p Latino 1 link mega, Viy 2: El Misterio Del Dragón (2019) REMUX 1080p Latino 1 link google drive, Viy 2: El Misterio Del Dragón (2019) REMUX 1080p Latino hd 1080p latino.
Comentarios 0