×

¿Problemas para descargar con Mozilla, EDGE? Deshabilita la opción "Abrir vinculos en una pestaña nueva" tal como lo muestra ésta imagen.

Viy 2: El Misterio Del Dragón (2019) HD 1080p Latino

274 vistas

Información de Viy 2: El Misterio Del Dragón (2019) HD 1080p Latino

Datos de la película

  • Calidad: 1080p
  • Audio: Español Latino AC3 5.1 BLURAY - Ingles AC3 5.1 BLURAY
  • Subtitulos: Español Latino SRT - Ingles SRT
  • Resolución: 1920x1014p
  • Formato: MKV
  • Codec: H.264
  • Encoder: Melkor
  • Mediainfo: Clic para Mostrar Datos Ver
  • Viy 2 - El Misterio Del Dragon (2019) HD 1080p Latino.mkv
    Format                      : Matroska
    Format version              : Version 4
    File size                   : 3.80 GiB
    Duration                    : 2 h 0 min
    Overall bit rate            : 4 504 kb/s
    Movie name                  : Journey To China - The Mystery Of Iron Mask (2019) CinemaniaHDD.Net
    Encoded date                : UTC 2020-11-24 05:49:04
    Writing application         : mkvmerge v51.0.0 ('I Wish') 64-bit
    Writing library             : libebml v1.4.0 + libmatroska v1.6.2
    Attachments                 : CINEMANIAHD.png

    Video
    ID                          : 1
    Format                      : AVC
    Format/Info                 : Advanced Video Codec
    Format profile              : High@L4.1
    Format settings             : CABAC / 4 Ref Frames
    Format settings, CABAC      : Yes
    Format settings, Reference  : 4 frames
    Codec ID                    : V_MPEG4/ISO/AVC
    Duration                    : 2 h 0 min
    Bit rate                    : 3 500 kb/s
    Width                       : 1 920 pixels
    Height                      : 1 014 pixels
    Display aspect ratio        : 1.893
    Frame rate mode             : Constant
    Frame rate                  : 23.976 (24000/1001) FPS
    Color space                 : YUV
    Chroma subsampling          : 4:2:0
    Bit depth                   : 8 bits
    Scan type                   : Progressive
    Bits/(Pixel*Frame)          : 0.075
    Stream size                 : 2.88 GiB (76%)
    Title                       : HD1080p [CinemaniaHDD]
    Writing library             : x264 core 157 r2935 545de2f
    Encoding settings           : cabac=1 / ref=4 / deblock=1:-1:-1 / analyse=0x3:0x133 / me=umh / subme=9 / psy=1 / psy_rd=1.00:0.15 / mixed_ref=1 / me_range=16 / chroma_me=1 / trellis=2 / 8x8dct=1 / cqm=0 / deadzone=21,11 / fast_pskip=1 / chroma_qp_offset=-3 / threads=24 / lookahead_threads=2 / sliced_threads=0 / nr=0 / decimate=1 / interlaced=0 / bluray_compat=0 / constrained_intra=0 / bframes=3 / b_pyramid=2 / b_adapt=2 / b_bias=0 / direct=3 / weightb=1 / open_gop=0 / weightp=2 / keyint=240 / keyint_min=24 / scenecut=40 / intra_refresh=0 / rc_lookahead=60 / rc=abr / mbtree=1 / bitrate=3500 / ratetol=1.0 / qcomp=0.60 / qpmin=0 / qpmax=69 / qpstep=4 / vbv_maxrate=62500 / vbv_bufsize=78125 / nal_hrd=none / filler=0 / ip_ratio=1.40 / aq=1:1.00
    Default                     : Yes
    Forced                      : No
    Color range                 : Limited
    Color primaries             : BT.709
    Transfer characteristics    : BT.709
    Matrix coefficients         : BT.709

    Audio #1
    ID                          : 2
    Format                      : AC-3
    Format/Info                 : Audio Coding 3
    Commercial name             : Dolby Digital
    Codec ID                    : A_AC3
    Duration                    : 2 h 0 min
    Bit rate mode               : Constant
    Bit rate                    : 640 kb/s
    Channel(s)                  : 6 channels
    Channel layout              : L R C LFE Ls Rs
    Sampling rate               : 48.0 kHz
    Frame rate                  : 31.250 FPS (1536 SPF)
    Compression mode            : Lossy
    Delay relative to video     : -5 ms
    Stream size                 : 552 MiB (14%)
    Title                       : Español Latino [CinemaniaHDD]
    Language                    : Spanish
    Service kind                : Complete Main
    Default                     : Yes
    Forced                      : No

    Audio #2
    ID                          : 3
    Format                      : AC-3
    Format/Info                 : Audio Coding 3
    Commercial name             : Dolby Digital
    Codec ID                    : A_AC3
    Duration                    : 2 h 0 min
    Bit rate mode               : Constant
    Bit rate                    : 448 kb/s
    Channel(s)                  : 6 channels
    Channel layout              : L R C LFE Ls Rs
    Sampling rate               : 48.0 kHz
    Frame rate                  : 31.250 FPS (1536 SPF)
    Compression mode            : Lossy
    Delay relative to video     : -5 ms
    Stream size                 : 387 MiB (10%)
    Title                       : Ingles [CinemaniaHDD]
    Language                    : English
    Service kind                : Complete Main
    Default                     : No
    Forced                      : No

    Text #1
    ID                          : 4
    Format                      : UTF-8
    Codec ID                    : S_TEXT/UTF8
    Codec ID/Info               : UTF-8 Plain Text
    Duration                    : 1 h 16 min
    Bit rate                    : 1 b/s
    Count of elements           : 24
    Stream size                 : 934 Bytes (0%)
    Title                       : Forzados-SRT [CinemaniaHDD]
    Language                    : Spanish
    Default                     : Yes
    Forced                      : No

    Text #2
    ID                          : 5
    Format                      : UTF-8
    Codec ID                    : S_TEXT/UTF8
    Codec ID/Info               : UTF-8 Plain Text
    Duration                    : 1 h 53 min
    Bit rate                    : 50 b/s
    Count of elements           : 1118
    Stream size                 : 42.5 KiB (0%)
    Title                       : Español-SRT [CinemaniaHDD]
    Language                    : Spanish
    Default                     : No
    Forced                      : No

    Text #3
    ID                          : 6
    Format                      : UTF-8
    Codec ID                    : S_TEXT/UTF8
    Codec ID/Info               : UTF-8 Plain Text
    Duration                    : 1 h 52 min
    Bit rate                    : 45 b/s
    Count of elements           : 1255
    Stream size                 : 37.6 KiB (0%)
    Title                       : Ingles-SRT [CinemaniaHDD]
    Language                    : English
    Default                     : No
    Forced                      : No

    Menu
    00:00:00.000                : :Chapter 1
    00:06:33.852                : :Chapter 2
    00:15:25.133                : :Chapter 3
    00:21:03.304                : :Chapter 4
    00:26:21.246                : :Chapter 5
    00:34:27.857                : :Chapter 6
    00:39:21.109                : :Chapter 7
    00:45:38.361                : :Chapter 8
    00:53:41.885                : :Chapter 9
    01:00:56.570                : :Chapter 10
    01:07:25.542                : :Chapter 11
    01:14:35.972                : :Chapter 12
    01:22:15.389                : :Chapter 13
    01:30:40.602                : :Chapter 14
    01:38:36.911                : :Chapter 15
    01:51:48.619                : :Chapter 16

  • Peso: 3.80 GiB

Sinopsis

Descargar Viy 2: El Misterio Del Dragón (2019) HD 1080p Latino. El cartógrafo inglés Jonathan Green recibe la orden de crear un mapa de la lejana Rusia. En su largo viaje, Jonathan vivirá todo tipo de aventuras, desde enfrentamientos con extrañas criaturas y batallas con maestros en artes marciales hasta brujas milenarias ocultas en los rincones más recónditos de la legendaria China. Pero todas las pruebas parecerán un juego de niños cuando tenga que enfrentarse al mayor de los enemigos jamás creado por la magia negra: el gran Rey de los Dragones.

Ficha técnica

Video trailer de la película

Enlaces de descarga

Rip de Bluray

Descargar Viy 2: El Misterio Del Dragón (2019) HD 1080p Latino




Aportes de DPeliculasHDmega la pass es:dpeliculashdmega.org Aportes de CinemaniaHD la pass es:cinemaniahdd.com
Guardado en : Aventura , Fantasía , HD 1080p

Películas relacionadas

  • DC Liga De Supermascotas (2022) HD 1080p Latino

    DC Liga De Supermascotas (2022) HD 1080p Latino

    2022
    DC Liga De Supermascotas (2022) HD 1080p Latino

    1h 45m 2022

    Descargar DC Liga De Supermascotas (2022) HD 1080p Latino. Krypto el Superperro y Superman son amigos...

    Director: Sam Levine

    Género: Acción

    Actores: Yvette Nicole Brown

  • Rainbow (2022) NF WEB-DL 1080p Cast

    Rainbow (2022) NF WEB-DL 1080p Cast

    2022
    Rainbow (2022) NF WEB-DL 1080p Cast

    1h 57m 2022

    Descargar Rainbow (2022) NF WEB-DL 1080p Cast. Una historia contemporánea sobre el paso a la edad adulta...

    Director: Tobias Vergara

    Género: Comedia

    Actores: Wekaforé Jibril

  • Anikulapo (2022) NF WEB-DL 1080p Latino

    Anikulapo (2022) NF WEB-DL 1080p Latino

    2022
    Anikulapo (2022) NF WEB-DL 1080p Latino

    2h 22m 2022

    Descargar Anikulapo (2022) NF WEB-DL 1080p Latino. Cuenta la historia de Saro, un hombre en busca de...

    Director: Kunle Afolayan

    Género: Drama

    Actores: Yinka Quadri

descargar Viy 2: El Misterio Del Dragón (2019) HD 1080p Latino 1080p 1080p gratis, Viy 2: El Misterio Del Dragón (2019) HD 1080p Latino 1080p mega 1 link, Viy 2: El Misterio Del Dragón (2019) HD 1080p Latino 1080p pelicula completa, descargar Viy 2: El Misterio Del Dragón (2019) HD 1080p Latino 1080p gratis en mega.

Viy 2: El Misterio Del Dragón (2019) HD 1080p Latino pelicula full hd, Viy 2: El Misterio Del Dragón (2019) HD 1080p Latino mega latino, Viy 2: El Misterio Del Dragón (2019) HD 1080p Latino 4k latino, Viy 2: El Misterio Del Dragón (2019) HD 1080p Latino pelicula completa, Viy 2: El Misterio Del Dragón (2019) HD 1080p Latino descargar gratis, descargar Viy 2: El Misterio Del Dragón (2019) HD 1080p Latino pelicula latino, Viy 2: El Misterio Del Dragón (2019) HD 1080p Latino 1 link mega, Viy 2: El Misterio Del Dragón (2019) HD 1080p Latino 1 link google drive, Viy 2: El Misterio Del Dragón (2019) HD 1080p Latino hd 1080p latino.
Comentarios 0