Vivir Sin Permiso (2019) Temporada 1 NF 1080p Castellano

364 vistas
1 estrella2 estrellas3 estrellas4 estrellas5 estrellas (Ninguna valoración todavía)
Cargando…

Información de Vivir Sin Permiso (2019) Temporada 1 NF 1080p Castellano

Datos de la película

  • Calidad: WEBDL
  • Audio: Español Latino E-AC3 5.1 Netflix - Japones E-AC3 5.1 Netflix
  • Subtitulos: Español Latino SRT
  • Resolución: 1920x1080
  • Formato: MKV
  • Codec: H.264
  • Encoder: cinemaniahd
  • Mediainfo: Clic para Mostrar Datos Ver
  • Format                      : Matroska
    Format version              : Version 4
    File size                   : 2.54 GiB
    Duration                    : 1 h 14 min
    Overall bit rate mode       : Variable
    Overall bit rate            : 4 917 kb/s
    Movie name                  : CinemaniaHDD.net
    Encoded date                : UTC 2019-02-08 16:57:19 / UTC 2019-02-05 04:11:42
    Writing application         : mkvmerge v30.1.0 ('Forever And More') 64-bit
    Writing library             : libebml v1.3.6 + libmatroska v1.4.9 / Lavf58.0.0

    Video
    ID                          : 1
    Format                      : AVC
    Format/Info                 : Advanced Video Codec
    Format profile              : [email protected]
    Format settings             : CABAC / 3 Ref Frames
    Format settings, CABAC      : Yes
    Format settings, ReFrames   : 3 frames
    Codec ID                    : V_MPEG4/ISO/AVC
    Duration                    : 1 h 14 min
    Bit rate mode               : Variable
    Bit rate                    : 4 420 kb/s
    Maximum bit rate            : 6 630 kb/s
    Width                       : 1 920 pixels
    Height                      : 1 080 pixels
    Display aspect ratio        : 16:9
    Frame rate mode             : Constant
    Frame rate                  : 25.000 FPS
    Color space                 : YUV
    Chroma subsampling          : 4:2:0
    Bit depth                   : 8 bits
    Scan type                   : Progressive
    Bits/(Pixel*Frame)          : 0.085
    Stream size                 : 2.23 GiB (88%)
    Writing library             : x264 core 148 r2715 7e75228
    Encoding settings           : cabac=1 / ref=3 / deblock=1:0:0 / analyse=0x1:0x111 / me=umh / subme=10 / psy=1 / psy_rd=1.00:0.00 / mixed_ref=1 / me_range=24 / chroma_me=1 / trellis=2 / 8x8dct=0 / cqm=0 / deadzone=21,11 / fast_pskip=1 / chroma_qp_offset=-2 / threads=8 / lookahead_threads=1 / sliced_threads=0 / nr=0 / decimate=1 / interlaced=0 / bluray_compat=0 / stitchable=1 / constrained_intra=0 / bframes=2 / b_pyramid=0 / b_adapt=2 / b_bias=0 / direct=3 / weightb=1 / open_gop=0 / weightp=2 / keyint=50 / keyint_min=26 / scenecut=0 / intra_refresh=0 / rc_lookahead=50 / rc=2pass / mbtree=1 / bitrate=4420 / ratetol=1.0 / qcomp=0.50 / qpmin=6 / qpmax=51 / qpstep=4 / cplxblur=20.0 / qblur=0.5 / vbv_maxrate=6630 / vbv_bufsize=8840 / nal_hrd=vbr / filler=0 / ip_ratio=1.40 / aq=1:1.00
    Language                    : Spanish
    Default                     : Yes
    Forced                      : No
    Statistics Tags Issue       : mkvmerge v30.1.0 ('Forever And More') 64-bit 2019-02-08 16:57:19 / mkvmerge v30.1.0 ('Forever And More') 64-bit 2019-02-08 16:57:19 / UTC 2019-02-05 04:11:42
    FromStats_BitRate           : 4402920
    FromStats_Duration          : 01:14:02.200000000
    FromStats_FrameCount        : 111055
    FromStats_StreamSize        : 2444831554

    Audio #1
    ID                          : 2
    Format                      : E-AC-3
    Format/Info                 : Enhanced AC-3
    Commercial name             : Dolby Digital Plus
    Codec ID                    : A_EAC3
    Duration                    : 1 h 14 min
    Bit rate mode               : Constant
    Bit rate                    : 128 kb/s
    Channel(s)                  : 2 channels
    Channel layout              : L R
    Sampling rate               : 48.0 kHz
    Frame rate                  : 31.250 FPS (1536 SPF)
    Compression mode            : Lossy
    Stream size                 : 67.8 MiB (3%)
    Language                    : Spanish
    Service kind                : Complete Main
    Default                     : Yes
    Forced                      : No
    Encoded date                : UTC 2019-02-05 04:06:32
    Statistics Tags Issue       : mkvmerge v30.1.0 ('Forever And More') 64-bit 2019-02-08 16:57:19 / mkvmerge v30.1.0 ('Forever And More') 64-bit 2019-02-08 16:57:19 / UTC 2019-02-05 04:11:42
    FromStats_BitRate           : 128000
    FromStats_Duration          : 01:14:02.272000000
    FromStats_FrameCount        : 138821
    FromStats_StreamSize        : 71076352

    Audio #2
    ID                          : 3
    Format                      : AC-3
    Format/Info                 : Audio Coding 3
    Commercial name             : Dolby Digital
    Codec ID                    : A_AC3
    Duration                    : 1 h 14 min
    Bit rate mode               : Constant
    Bit rate                    : 384 kb/s
    Channel(s)                  : 6 channels
    Channel layout              : L R C LFE Ls Rs
    Sampling rate               : 48.0 kHz
    Frame rate                  : 31.250 FPS (1536 SPF)
    Bit depth                   : 16 bits
    Compression mode            : Lossy
    Stream size                 : 203 MiB (8%)
    Language                    : English
    Service kind                : Complete Main
    Default                     : No
    Forced                      : No
    Encoded date                : UTC 2019-02-05 04:11:42
    Statistics Tags Issue       : mkvmerge v30.1.0 ('Forever And More') 64-bit 2019-02-08 16:57:19 / mkvmerge v30.1.0 ('Forever And More') 64-bit 2019-02-08 16:57:19 / UTC 2019-02-05 04:11:42
    FromStats_BitRate           : 384000
    FromStats_Duration          : 01:14:02.528000000
    FromStats_FrameCount        : 138829
    FromStats_StreamSize        : 213241344

    Text
    ID                          : 4
    Format                      : UTF-8
    Codec ID                    : S_TEXT/UTF8
    Codec ID/Info               : UTF-8 Plain Text
    Language                    : Spanish
    Default                     : No
    Forced                      : No
    Statistics Tags Issue       : mkvmerge v30.1.0 ('Forever And More') 64-bit 2019-02-08 16:57:19 / mkvmerge v30.1.0 ('Forever And More') 64-bit 2019-02-08 16:57:19 / UTC 2019-02-05 04:11:42
    FromStats_BitRate           : 69
    FromStats_Duration          : 01:13:26.640000000
    FromStats_FrameCount        : 1156
    FromStats_StreamSize        : 38447

  • Peso: 2.70 GiB X Capitulo

Sinopsis

La serie narra el declive de un líder poderoso, dominante y temido que ha controlado con mano de hierro durante años la comunidad en la que vive y el espectáculo cruel y despiadado que ofrecen sus familiares y allegados por hacerse con el control de su imperio. Pasiones, rivalidades e intereses enfrentados son los ejes en torno a los que se vertebra la serie.

Ficha técnica

  • Titulo original: Vivir Sin Permiso
  • Fecha de lanzamiento: 24-09-2018 (ES)
  • Género: Castellano, Drama, Series
  • Puntuación: 0.0 0 votos
  • Duración:
    1h 20m

Video trailer de la película

Enlaces de descarga

Rip de Bluray

Descargar Vivir Sin Permiso (2019) Temporada 1 NF 1080p Castellano




Aportes de DPeliculasHDmega la pass es:dpeliculashdmega.org Aportes de CinemaniaHD la pass es:cinemaniahdd.com
Guardado en : Castellano , Drama , Series

Películas relacionadas

  • Yucatán (2018) NF WEB-DL 1080p Castellano

    2018
    Yucatán (2018) NF WEB-DL 1080p Castellano

    0.0 2h 10m 2018

    Lucas (Luis Tosar) y Clayderman (Rodrigo de la Serna) son dos estafadores que se dedican a timar a turistas...

    Director: Daniel Monzón

    Género: Castellano

    Actores: Xavier Lite

  • El Vacio (2018) Temporada 1 NF 1080p Latino

    2018
    El Vacio (2018) Temporada 1 NF 1080p Latino

    0.0 0h 25m 2018

    Tres adolescentes despiertan en un reino extraño lleno de portales mágicos, enigmas desconcertantes...

    Director: Vito Viscomi

    Género: Animación

    Actores: Mark Hildreth

Comentarios 0