×

¿Problemas para descargar con Mozilla, EDGE? Deshabilita la opción "Abrir vinculos en una pestaña nueva" tal como lo muestra ésta imagen.

Vita & Virginia (2018) REMUX 1080p Latino

426 vistas

Información de Vita & Virginia (2018) REMUX 1080p Latino

Datos de la película

  • Calidad: Full 1080p
  • Audio: Español Latino AC3 5.1 iTUNES - Ingles DTS 5.1 BLURAY
  • Subtitulos: Español Latino SRT - Ingles SRT
  • Resolución: 1920x1080p
  • Formato: MKV
  • Codec: H.264
  • Encoder: CinefiloCool
  • Mediainfo: Clic para Mostrar Datos Ver
  • Vita & Virginia (2018) REMUX 1080p Latino-CMHDD.mkv
    Format                      : Matroska
    Format version              : Version 4
    File size                   : 24.2 GiB
    Duration                    : 1 h 49 min
    Overall bit rate mode       : Variable
    Overall bit rate            : 31.5 Mb/s
    Movie name                  : CinemaniaHDD.Net
    Encoded date                : UTC 2020-02-14 18:20:01
    Writing application         : mkvmerge v42.0.0 ('Overtime') 64-bit
    Writing library             : libebml v1.3.10 + libmatroska v1.5.2
    Attachments                 : CINEMANIAHD.png

    Video
    ID                          : 1
    Format                      : AVC
    Format/Info                 : Advanced Video Codec
    Format profile              : High@L4.1
    Format settings             : CABAC / 4 Ref Frames
    Format settings, CABAC      : Yes
    Format settings, ReFrames   : 4 frames
    Codec ID                    : V_MPEG4/ISO/AVC
    Duration                    : 1 h 49 min
    Bit rate mode               : Variable
    Bit rate                    : 27.8 Mb/s
    Maximum bit rate            : 35.0 Mb/s
    Width                       : 1 920 pixels
    Height                      : 1 080 pixels
    Display aspect ratio        : 16:9
    Frame rate mode             : Constant
    Frame rate                  : 24.000 FPS
    Color space                 : YUV
    Chroma subsampling          : 4:2:0
    Bit depth                   : 8 bits
    Scan type                   : Progressive
    Bits/(Pixel*Frame)          : 0.558
    Stream size                 : 21.3 GiB (88%)
    Title                       : Full HD1080p [REMUX]
    Default                     : Yes
    Forced                      : Yes

    Audio #1
    ID                          : 2
    Format                      : AC-3
    Format/Info                 : Audio Coding 3
    Commercial name             : Dolby Digital
    Codec ID                    : A_AC3
    Duration                    : 1 h 49 min
    Bit rate mode               : Constant
    Bit rate                    : 448 kb/s
    Channel(s)                  : 6 channels
    Channel layout              : L R C LFE Ls Rs
    Sampling rate               : 48.0 kHz
    Frame rate                  : 31.250 FPS (1536 SPF)
    Bit depth                   : 16 bits
    Compression mode            : Lossy
    Stream size                 : 352 MiB (1%)
    Title                       : AC3_5.1_Web_Esp
    Language                    : Spanish
    Service kind                : Complete Main
    Default                     : Yes
    Forced                      : Yes

    Audio #2
    ID                          : 3
    Format                      : DTS XLL
    Format/Info                 : Digital Theater Systems
    Commercial name             : DTS-HD Master Audio
    Codec ID                    : A_DTS
    Duration                    : 1 h 49 min
    Bit rate mode               : Variable
    Bit rate                    : 3 266 kb/s
    Channel(s)                  : 6 channels
    Channel layout              : C L R Ls Rs LFE
    Sampling rate               : 48.0 kHz
    Frame rate                  : 93.750 FPS (512 SPF)
    Bit depth                   : 24 bits
    Compression mode            : Lossless
    Stream size                 : 2.51 GiB (10%)
    Title                       : DTS-HD_5.1_Bluray_Eng
    Language                    : English
    Default                     : No
    Forced                      : No

    Text #1
    ID                          : 4
    Format                      : UTF-8
    Codec ID                    : S_TEXT/UTF8
    Codec ID/Info               : UTF-8 Plain Text
    Duration                    : 1 h 32 min
    Bit rate                    : 0 b/s
    Count of elements           : 15
    Stream size                 : 576 Bytes (0%)
    Title                       : Sub_Forzados
    Language                    : Spanish
    Default                     : Yes
    Forced                      : Yes

    Text #2
    ID                          : 5
    Format                      : UTF-8
    Codec ID                    : S_TEXT/UTF8
    Codec ID/Info               : UTF-8 Plain Text
    Duration                    : 1 h 47 min
    Bit rate                    : 57 b/s
    Count of elements           : 1226
    Stream size                 : 45.6 KiB (0%)
    Title                       : Sub_Esp
    Language                    : Spanish
    Default                     : No
    Forced                      : No

    Text #3
    ID                          : 6
    Format                      : UTF-8
    Codec ID                    : S_TEXT/UTF8
    Codec ID/Info               : UTF-8 Plain Text
    Duration                    : 1 h 41 min
    Bit rate                    : 62 b/s
    Count of elements           : 1350
    Stream size                 : 46.9 KiB (0%)
    Title                       : Sub_Eng
    Language                    : English
    Default                     : No
    Forced                      : No

    Menu
    00:00:00.000                : en:Chapter 01
    00:06:55.333                : en:Chapter 02
    00:13:37.333                : en:Chapter 03
    00:22:19.875                : en:Chapter 04
    00:34:17.292                : en:Chapter 05
    00:48:27.250                : en:Chapter 06
    01:00:35.083                : en:Chapter 07
    01:05:07.292                : en:Chapter 08
    01:13:20.875                : en:Chapter 09
    01:29:31.167                : en:Chapter 10
    01:36:08.042                : en:Chapter 11
    01:44:28.292                : en:Chapter 12

  • Peso: 24.2 GiB

Sinopsis

Descargar Vita & Virginia (2018) REMUX 1080p Latino. Vita y Virginia son dos de las mujeres más fascinantes y progresistas de su tiempo. Ambas se ven envueltas en una agónica aventura amorosa que determina para siempre sus vidas y su trabajo.

Ficha técnica

Video trailer de la película

Enlaces de descarga

Rip de Bluray

Descargar Vita & Virginia (2018) REMUX 1080p Latino




Aportes de DPeliculasHDmega la pass es:dpeliculashdmega.org Aportes de CinemaniaHD la pass es:cinemaniahdd.com
Guardado en : Drama , Remux , Romance

Películas relacionadas

descargar Vita & Virginia (2018) REMUX 1080p Latino Full 1080p 1080p gratis, Vita & Virginia (2018) REMUX 1080p Latino Full 1080p mega 1 link, Vita & Virginia (2018) REMUX 1080p Latino Full 1080p pelicula completa, descargar Vita & Virginia (2018) REMUX 1080p Latino Full 1080p gratis en mega.

Vita & Virginia (2018) REMUX 1080p Latino pelicula full hd, Vita & Virginia (2018) REMUX 1080p Latino mega latino, Vita & Virginia (2018) REMUX 1080p Latino 4k latino, Vita & Virginia (2018) REMUX 1080p Latino pelicula completa, Vita & Virginia (2018) REMUX 1080p Latino descargar gratis, descargar Vita & Virginia (2018) REMUX 1080p Latino pelicula latino, Vita & Virginia (2018) REMUX 1080p Latino 1 link mega, Vita & Virginia (2018) REMUX 1080p Latino 1 link google drive, Vita & Virginia (2018) REMUX 1080p Latino hd 1080p latino.
Comentarios 0