×

¿Problemas para descargar con Mozilla, EDGE? Deshabilita la opción "Abrir vinculos en una pestaña nueva" tal como lo muestra ésta imagen.

Virtuosity (1995) REMUX 1080p Latino – CMHDD

159 vistas

Información de Virtuosity (1995) REMUX 1080p Latino – CMHDD

Datos de la película

  • Calidad: Full 1080p
  • Audio: Español Latino AC3 2.0 BLURAY - Ingles DTS 5.1 BLURAY
  • Subtitulos: Español Latino PGS
  • Resolución: 1920x1080p
  • Formato: MKV
  • Codec: H.264
  • Encoder: Dracarys
  • Mediainfo: Clic para Mostrar Datos Ver
  • Format                      : Matroska
    Format version              : Version 4
    File size                   : 28.4 GiB
    Duration                    : 1 h 45 min
    Overall bit rate mode       : Variable
    Overall bit rate            : 38.4 Mb/s
    Movie name                  : Virtuosity (1995) REMUX 1080p Latino - CMHDD
    Encoded date                : UTC 2021-07-15 06:05:35
    Writing application         : mkvmerge v56.1.0 ('My Friend') 64-bit
    Writing library             : libebml v1.4.2 + libmatroska v1.6.4
    Cover                       : Yes
    Attachments                 : cover.jpg

    Video
    ID                          : 1
    ID in the original source m : 4113 (0x1011)
    Format                      : AVC
    Format/Info                 : Advanced Video Codec
    Format profile              : High@L4.1
    Format settings             : CABAC / 4 Ref Frames
    Format settings, CABAC      : Yes
    Format settings, Reference  : 4 frames
    Codec ID                    : V_MPEG4/ISO/AVC
    Duration                    : 1 h 45 min
    Bit rate mode               : Variable
    Bit rate                    : 33.7 Mb/s
    Maximum bit rate            : 35.0 Mb/s
    Width                       : 1 920 pixels
    Height                      : 1 080 pixels
    Display aspect ratio        : 16:9
    Frame rate mode             : Constant
    Frame rate                  : 23.976 (24000/1001) FPS
    Color space                 : YUV
    Chroma subsampling          : 4:2:0
    Bit depth                   : 8 bits
    Scan type                   : Progressive
    Bits/(Pixel*Frame)          : 0.677
    Stream size                 : 24.9 GiB (88%)
    Default                     : Yes
    Forced                      : No
    Original source medium      : Blu-ray

    Audio #1
    ID                          : 2
    ID in the original source m : 4352 (0x1100)
    Format                      : DTS XLL
    Format/Info                 : Digital Theater Systems
    Commercial name             : DTS-HD Master Audio
    Codec ID                    : A_DTS
    Duration                    : 1 h 45 min
    Bit rate mode               : Variable
    Bit rate                    : 4 506 kb/s
    Channel(s)                  : 6 channels
    Channel layout              : C L R Ls Rs LFE
    Sampling rate               : 48.0 kHz
    Frame rate                  : 93.750 FPS (512 SPF)
    Bit depth                   : 24 bits
    Compression mode            : Lossless
    Stream size                 : 3.33 GiB (12%)
    Language                    : English
    Default                     : No
    Forced                      : No
    Original source medium      : Blu-ray

    Audio #2
    ID                          : 3
    ID in the original source m : 4355 (0x1103)
    Format                      : AC-3
    Format/Info                 : Audio Coding 3
    Commercial name             : Dolby Digital
    Codec ID                    : A_AC3
    Duration                    : 1 h 45 min
    Bit rate mode               : Constant
    Bit rate                    : 224 kb/s
    Channel(s)                  : 2 channels
    Channel layout              : L R
    Sampling rate               : 48.0 kHz
    Frame rate                  : 31.250 FPS (1536 SPF)
    Compression mode            : Lossy
    Stream size                 : 170 MiB (1%)
    Language                    : Spanish
    Service kind                : Complete Main
    Default                     : Yes
    Forced                      : No
    Original source medium      : Blu-ray

    Text
    ID                          : 4
    ID in the original source m : 4613 (0x1205)
    Format                      : PGS
    Muxing mode                 : zlib
    Codec ID                    : S_HDMV/PGS
    Codec ID/Info               : Picture based subtitle format used on BDs/HD-DVDs
    Duration                    : 1 h 45 min
    Bit rate                    : 22.2 kb/s
    Count of elements           : 1550
    Stream size                 : 16.7 MiB (0%)
    Language                    : Spanish
    Default                     : No
    Forced                      : No
    Original source medium      : Blu-ray

    Menu
    00:00:00.000                : Chapter 01
    00:07:48.843                : Chapter 02
    00:12:16.235                : Chapter 03
    00:16:12.596                : Chapter 04
    00:18:01.371                : Chapter 05
    00:21:19.194                : Chapter 06
    00:25:11.384                : Chapter 07
    00:31:30.930                : Chapter 08
    00:35:41.472                : Chapter 09
    00:40:19.250                : Chapter 10
    00:48:51.136                : Chapter 11
    00:52:28.061                : Chapter 12
    00:56:36.518                : Chapter 13
    01:02:41.883                : Chapter 14
    01:06:55.136                : Chapter 15
    01:12:33.849                : Chapter 16
    01:20:54.516                : Chapter 17
    01:27:40.380                : Chapter 18
    01:32:57.071                : Chapter 19
    01:38:44.877                : Chapter 20

  • Peso: 28.4 GiB

Sinopsis

Un centro de tecnología ha desarrollado un simulador de realidad virtual que mide la capacidad de los agentes para enfrentarse a un asesino generado por ordenador, que tiene rasgos de 200 criminales reales. Pero éste consigue escaparse al mundo real. El encargado de atraparlo es un expolicía, cuya familia fue matada por un terrorista que forma parte de la personalidad del homicida.

Ficha técnica

Video trailer de la película

Enlaces de descarga

Rip de Bluray

Descargar Virtuosity (1995) REMUX 1080p Latino – CMHDD


Aportes de DPeliculasHDmega la pass es:dpeliculashdmega.org Aportes de CinemaniaHD la pass es:cinemaniahdd.com

Películas relacionadas

  • Ajin: Semi-Humano (2017) AMZN WEB-DL 1080p Latino

    Ajin: Semi-Humano (2017) AMZN WEB-DL 1080p Latino

    2017
    Ajin: Semi-Humano (2017) AMZN WEB-DL 1080p Latino

    1h 50m 2017

    Descargar Ajin: Semi-Humano (2017) AMZN WEB-DL 1080p Latino. En el manga original, aparece una persona...

    Director: Toru Yamamoto

    Género: Acción

    Actores: Yuki Yamada

  • Ajin: Semi-Humano (2017) REMUX 1080p Latino

    Ajin: Semi-Humano (2017) REMUX 1080p Latino

    2017
    Ajin: Semi-Humano (2017) REMUX 1080p Latino

    1h 50m 2017

    Descargar Ajin: Semi-Humano (2017) REMUX 1080p Latino. En el manga original, aparece una persona inmortal...

    Director: Toru Yamamoto

    Género: Acción

    Actores: Yuki Yamada

  • Zola (2020) HD 1080p Latino

    Zola (2020) HD 1080p Latino

    2020
    Zola (2020) HD 1080p Latino

    1h 26m 2020

    Descargar Zola (2020) HD 1080p Latino. Una camarera accede a acompañar a una bailarina exótica, su...

    Director: Sheri Davani

    Género: Comedia

    Actores: Ts Madison

  • Zola (2020) PLACEBO Full HD 1080p Latino

    Zola (2020) PLACEBO Full HD 1080p Latino

    2020
    Zola (2020) PLACEBO Full HD 1080p Latino

    1h 26m 2020

    Descargar Zola (2020) PLACEBO Full HD 1080p Latino. Una camarera accede a acompañar a una bailarina...

    Director: Sheri Davani

    Género: Comedia

    Actores: Ts Madison

descargar Virtuosity (1995) REMUX 1080p Latino – CMHDD Full 1080p 1080p gratis, Virtuosity (1995) REMUX 1080p Latino – CMHDD Full 1080p mega 1 link, Virtuosity (1995) REMUX 1080p Latino – CMHDD Full 1080p pelicula completa, descargar Virtuosity (1995) REMUX 1080p Latino – CMHDD Full 1080p gratis en mega.

Virtuosity (1995) REMUX 1080p Latino – CMHDD pelicula full hd, Virtuosity (1995) REMUX 1080p Latino – CMHDD mega latino, Virtuosity (1995) REMUX 1080p Latino – CMHDD 4k latino, Virtuosity (1995) REMUX 1080p Latino – CMHDD pelicula completa, Virtuosity (1995) REMUX 1080p Latino – CMHDD descargar gratis, descargar Virtuosity (1995) REMUX 1080p Latino – CMHDD pelicula latino, Virtuosity (1995) REMUX 1080p Latino – CMHDD 1 link mega, Virtuosity (1995) REMUX 1080p Latino – CMHDD 1 link google drive, Virtuosity (1995) REMUX 1080p Latino – CMHDD hd 1080p latino.