Virgen a los 40 (2005) [AMZN] WEB-DL 1080p Latino

327 vistas
1 estrella2 estrellas3 estrellas4 estrellas5 estrellas (Ninguna valoración todavía)
Cargando…

Información de Virgen a los 40 (2005) [AMZN] WEB-DL 1080p Latino

Datos de la película

  • Calidad: WEBDL
  • Audio: Se especifica abajo de la Sinopsis
  • Subtitulos: Español Latino SRT- FORZADOS SRT
  • Resolución: 1920x1040p
  • Formato: MKV
  • Codec: H.264
  • Encoder: Amazon
  • Mediainfo: Clic para Mostrar Datos Ver
  • Format                                   : Matroska
    Format version                           : Version 4 / Version 2
    File size                                : 12.9 GiB
    Duration                                 : 1 h 56 min
    Overall bit rate mode                    : Variable
    Overall bit rate                         : 15.9 Mb/s
    Movie name                               : CinemaniaHDD.net
    Encoded date                             : UTC 2018-10-21 06:07:48
    Writing application                      : mkvmerge v15.0.0 ('Duel with the Devil') 64-bit
    Writing library                          : libebml v1.3.5 + libmatroska v1.4.5

    Video
    ID                                       : 1
    Format                                   : AVC
    Format/Info                              : Advanced Video Codec
    Format profile                           : High@L4
    Format settings                          : CABAC / 4 Ref Frames
    Format settings, CABAC                   : Yes
    Format settings, RefFrames               : 4 frames
    Codec ID                                 : V_MPEG4/ISO/AVC
    Duration                                 : 1 h 56 min
    Bit rate mode                            : Variable
    Bit rate                                 : 14.6 Mb/s
    Maximum bit rate                         : 15.0 Mb/s
    Width                                    : 1 920 pixels
    Height                                   : 1 040 pixels
    Display aspect ratio                     : 1.85:1
    Frame rate mode                          : Constant
    Frame rate                               : 23.976 (24000/1001) FPS
    Color space                              : YUV
    Chroma subsampling                       : 4:2:0
    Bit depth                                : 8 bits
    Scan type                                : Progressive
    Bits/(Pixel*Frame)                       : 0.305
    Stream size                              : 11.8 GiB (92%)
    Language                                 : English
    Default                                  : Yes
    Forced                                   : No
    Color range                              : Limited
    Color primaries                          : BT.709
    Transfer characteristics                 : BT.709
    Matrix coefficients                      : BT.709

    Audio #1
    ID                                       : 2
    Format                                   : E-AC-3
    Format/Info                              : Enhanced Audio Coding 3
    Format settings, Endianness              : Big
    Codec ID                                 : A_EAC3
    Duration                                 : 1 h 56 min
    Bit rate mode                            : Constant
    Bit rate                                 : 640 kb/s
    Channel(s)                               : 6 channels
    Channel positions                        : Front: L C R, Side: L R, LFE
    Sampling rate                            : 48.0 kHz
    Frame rate                               : 187.500 FPS (256 SPF)
    Compression mode                         : Lossy
    Stream size                              : 531 MiB (4%)
    Language                                 : Spanish
    Service kind                             : Complete Main
    Default                                  : Yes
    Forced                                   : No

    Audio #2
    ID                                       : 3
    Format                                   : E-AC-3
    Format/Info                              : Enhanced Audio Coding 3
    Format settings, Endianness              : Big
    Codec ID                                 : A_EAC3
    Duration                                 : 1 h 56 min
    Bit rate mode                            : Constant
    Bit rate                                 : 640 kb/s
    Channel(s)                               : 6 channels
    Channel positions                        : Front: L C R, Side: L R, LFE
    Sampling rate                            : 48.0 kHz
    Frame rate                               : 187.500 FPS (256 SPF)
    Compression mode                         : Lossy
    Stream size                              : 531 MiB (4%)
    Language                                 : English
    Service kind                             : Complete Main
    Default                                  : No
    Forced                                   : No

    Text #1
    ID                                       : 4
    Format                                   : UTF-8
    Codec ID                                 : S_TEXT/UTF8
    Codec ID/Info                            : UTF-8 Plain Text
    Duration                                 : 1 h 53 min
    Bit rate                                 : 93 b/s
    Count of elements                        : 2357
    Stream size                              : 77.7 KiB (0%)
    Language                                 : English
    Default                                  : No
    Forced                                   : No

    Text #2
    ID                                       : 5
    Format                                   : UTF-8
    Codec ID                                 : S_TEXT/UTF8
    Codec ID/Info                            : UTF-8 Plain Text
    Duration                                 : 1 h 50 min
    Bit rate                                 : 1 b/s
    Count of elements                        : 54
    Stream size                              : 1.21 KiB (0%)
    Title                                    : Forzados
    Language                                 : Spanish
    Default                                  : Yes
    Forced                                   : Yes

    Text #3
    ID                                       : 6
    Format                                   : UTF-8
    Codec ID                                 : S_TEXT/UTF8
    Codec ID/Info                            : UTF-8 Plain Text
    Duration                                 : 1 h 51 min
    Bit rate                                 : 86 b/s
    Count of elements                        : 2178
    Stream size                              : 70.5 KiB (0%)
    Language                                 : Spanish
    Default                                  : No
    Forced                                   : No

    Menu
    00:00:00.000                             : en:Studio Logos
    00:00:25.000                             : en:Andy Starts His Day
    00:02:56.000                             : en:Andy Arrives to Work
    00:06:08.000                             : en:The Boys Invite Andy to Poker Night
    00:07:22.000                             : en:Andy Talks with the Boys
    00:12:42.000                             : en:Andy Feels Humiliated
    00:14:55.000                             : en:Andy Makes a Run for It
    00:15:59.000                             : en:Andy and David Have a Heart to Heart
    00:18:07.000                             : en:Andy Sees Sex Everywhere
    00:18:52.000                             : en:Andy Thinks about the Past
    00:20:02.000                             : en:The Boys Go Out
    00:21:33.000                             : en:Andy Meets Nicky
    00:23:17.000                             : en:Nicky Drives Andy to Her Place
    00:26:50.000                             : en:Jay Lectures Andy
    00:28:09.000                             : en:Andy Meets Trish
    00:30:51.000                             : en:The Boys Go Out for a Drink
    00:33:00.000                             : en:Andy Becomes Self-Conscious
    00:34:54.000                             : en:Andy Waxes His Chest
    00:38:21.000                             : en:Cal Gives Andy Advice
    00:42:09.000                             : en:Andy Calls Trish
    00:43:21.000                             : en:David Brings Andy a Box
    00:45:59.000                             : en:Andy Gets Ready for Bed
    00:47:28.000                             : en:David Invites Andy to Lunch
    00:48:00.000                             : en:The Boys Sign Up for Date-A-Palooza
    00:51:07.000                             : en:Jill Confronts Andy
    00:54:00.000                             : en:Jay Sets Andy Up
    00:56:40.000                             : en:Andy Asks Trish on a Date
    00:58:30.000                             : en:David and Cal Play Video Games
    01:02:24.000                             : en:Andy and Trish Go on Their First Date
    01:04:20.000                             : en:Andy Goes Back to Trish's
    01:07:00.000                             : en:Andy Calls a Hotline
    01:07:22.000                             : en:Paula Comes On to Andy
    01:10:59.000                             : en:Andy Prepares to Tell Trish
    01:14:49.000                             : en:Andy Meets Julia
    01:17:46.000                             : en:Andy Gets a Promotion
    01:20:48.000                             : en:Andy Bonds with Trish and Her Family
    01:21:51.000                             : en:Trish Offers Her Help
    01:23:44.000                             : en:Marla Lashes Out
    01:25:13.000                             : en:Andy Takes Marla to a Class
    01:28:23.000                             : en:Jay Annouces Jill's Pregancy
    01:30:14.000                             : en:Andy and Trish Have an Argument
    01:34:22.000                             : en:Andy Gets Drunk
    01:38:28.000                             : en:Marla Talks to Trish about Andy
    01:42:38.000                             : en:The Boys Give Andy Real Advice
    01:43:39.000                             : en:Andy Tells Trish
    01:48:39.000                             : en:Andy and Trish Commit to Each Other
    01:52:34.000                             : en:End Credits

     

  • Peso: 12.9 GiB

Sinopsis

Andy Stitzer, de 40 años, ha hecho pocas cosas en su vida. Tiene un trabajo mediocre sellando facturas en una tienda de electrodomésticos, un lindo apartamento con una colección de cómics, buenos amigos… Pero hay una cosa que aun no ha conseguido, y que la mayoría a su edad sí. Andy nunca ha tenido relaciones sexuales.

 

 

Latino: E-AC3 5.1  –  Ingles: E-AC3 5.1

Ficha técnica

  • Titulo original: The 40 Year Old Virgin
  • Fecha de lanzamiento: 11-08-2005 (United States of America)
  • Director: Judd Apatow, Peter Dress
  • Género: Comedia, Romance
  • Puntuación: 0.0 0 votos
  • Duración:
    1h 56m

Video trailer de la película

Enlaces de descarga

Rip de Bluray

Descargar Virgen a los 40 (2005) [AMZN] WEB-DL 1080p Latino




Aportes de DPeliculasHDmega la pass es:dpeliculashdmega.org Aportes de CinemaniaHD la pass es:cinemaniahdd.com
Guardado en : Comedia , Romance

Películas relacionadas

  • La balada de Buster Scruggs (2018) NF 1080p Latino

    2018
    La balada de Buster Scruggs (2018) NF 1080p Latino

    0.0 2h 12m 2018

    Los siempre singulares Joel y Ethan Cohen escriben y dirigen esta antología de seis historias del Salvaje...

    Director: Joel Coen

    Género: Comedia

    Actores: Zoe Kazan

  • Cambio de princesa (2018) NF 1080p Latino

    2018
    Cambio de princesa (2018) NF 1080p Latino

    0.0 1h 41m 2018

    Una repostera de Chicago y una futura princesa descubren que parecen gemelas, así que idean un plan...

    Director: Mike Rohl

    Género: Comedia

    Actores: Vanessa Hudgens

  • La pequeña brujita (2018) AMZN 1080p Latino

    2018
    La pequeña brujita (2018) AMZN 1080p Latino

    5.0 1h 43m 2018

    Descargar La pequeña brujita (2018) AMZN 1080p Latino, Mega, Google Drive. La pequeña bruja sólo tiene...

    Director: Mike Schaerer

    Género: Comedia

    Actores: Verena Bosshard

  • El infiltrado del KKKlan (2018) Full 1080p Latino

    2018
    El infiltrado del KKKlan (2018) Full 1080p Latino

    5.0 2h 15m 2018

    A principios de los años setenta, una época de gran agitación social con la encarnizada lucha por...

    Director: Spike Lee

    Género: Comedia

    Actores: Topher Grace

  • Locamente Millonarios (2018) 1080p Latino

    2018
    Locamente Millonarios (2018) 1080p Latino

    0.0 2h 0m 2018

    Locamente Millonarios (2018) 1080p Latino; Mega, Google Drive. Rachel Chu es profesora de economía en...

    Director: Jon M. Chu

    Género: Comedia

    Actores: Victoria Loke

Comentarios 0