×

¿Problemas para descargar con Mozilla, EDGE? Deshabilita la opción "Abrir vinculos en una pestaña nueva" tal como lo muestra ésta imagen.

Village of the Damned (1995) REMUX Latino – CMHDD

72 vistas

Información de Village of the Damned (1995) REMUX Latino – CMHDD

Datos de la película

  • Calidad: Full 1080p
  • Audio: Español Latino AC3 2.0 DVD - Ingles DTS 5.1 BLURAY
  • Subtitulos: Español Latino SRT
  • Resolución: 1920x1080p
  • Formato: MKV
  • Codec: H.264
  • Encoder: Dracarys
  • Mediainfo: Clic para Mostrar Datos Ver
  • Format                      : Matroska
    Format version              : Version 4
    File size                   : 26.2 GiB
    Duration                    : 1 h 38 min
    Overall bit rate mode       : Variable
    Overall bit rate            : 38.3 Mb/s
    Movie name                  : Village of the Damned (1995) REMUX Latino - CMHDD
    Encoded date                : UTC 2021-12-25 20:52:01
    Writing application         : mkvmerge v17.0.0 ('Be Ur Friend') 64-bit
    Writing library             : libebml v1.3.5 + libmatroska v1.4.8

    Video
    ID                          : 1
    Format                      : AVC
    Format/Info                 : Advanced Video Codec
    Format profile              : High@L4.1
    Format settings             : CABAC / 4 Ref Frames
    Format settings, CABAC      : Yes
    Format settings, Reference  : 4 frames
    Format settings, GOP        : M=3, N=12
    Codec ID                    : V_MPEG4/ISO/AVC
    Duration                    : 1 h 38 min
    Bit rate mode               : Constant
    Bit rate                    : 35.0 Mb/s
    Width                       : 1 920 pixels
    Height                      : 1 080 pixels
    Display aspect ratio        : 16:9
    Frame rate mode             : Constant
    Frame rate                  : 23.976 (24000/1001) FPS
    Color space                 : YUV
    Chroma subsampling          : 4:2:0
    Bit depth                   : 8 bits
    Scan type                   : Progressive
    Bits/(Pixel*Frame)          : 0.704
    Stream size                 : 23.2 GiB (88%)
    Default                     : Yes
    Forced                      : No

    Audio #1
    ID                          : 2
    Format                      : DTS XLL
    Format/Info                 : Digital Theater Systems
    Commercial name             : DTS-HD Master Audio
    Codec ID                    : A_DTS
    Duration                    : 1 h 37 min
    Bit rate mode               : Variable
    Bit rate                    : 4 247 kb/s
    Channel(s)                  : 6 channels
    Channel layout              : C L R Ls Rs LFE
    Sampling rate               : 48.0 kHz
    Frame rate                  : 93.750 FPS (512 SPF)
    Bit depth                   : 24 bits
    Compression mode            : Lossless
    Stream size                 : 2.91 GiB (11%)
    Language                    : English
    Default                     : No
    Forced                      : No

    Audio #2
    ID                          : 3
    Format                      : AC-3
    Format/Info                 : Audio Coding 3
    Commercial name             : Dolby Digital
    Codec ID                    : A_AC3
    Duration                    : 1 h 37 min
    Bit rate mode               : Constant
    Bit rate                    : 192 kb/s
    Channel(s)                  : 2 channels
    Channel layout              : L R
    Sampling rate               : 48.0 kHz
    Frame rate                  : 31.250 FPS (1536 SPF)
    Compression mode            : Lossy
    Stream size                 : 135 MiB (1%)
    Language                    : Spanish
    Service kind                : Complete Main
    Default                     : Yes
    Forced                      : No

    Text
    ID                          : 4
    Format                      : UTF-8
    Codec ID                    : S_TEXT/UTF8
    Codec ID/Info               : UTF-8 Plain Text
    Duration                    : 1 h 31 min
    Bit rate                    : 28 b/s
    Count of elements           : 607
    Stream size                 : 19.0 KiB (0%)
    Language                    : Spanish
    Default                     : No
    Forced                      : No

    Menu
    00:00:00.000                : en:Chapter 1
    00:08:05.276                : en:Chapter 2
    00:16:17.518                : en:Chapter 3
    00:24:24.004                : en:Chapter 4
    00:33:26.963                : en:Chapter 5
    00:39:42.046                : en:Chapter 6
    00:48:05.799                : en:Chapter 7
    00:56:01.566                : en:Chapter 8
    01:04:20.648                : en:Chapter 9
    01:13:27.152                : en:Chapter 10
    01:19:34.394                : en:Chapter 11
    01:26:17.922                : en:Chapter 12

  • Peso: 26.2 GiB

Sinopsis

Durante unas horas todos los habitantes de Midwich, un tranquilo pueblo costero, pierden el conocimiento. Poco tiempo después, se produce otro inquietante y extraño fenómeno que parece estar relacionado con aquel desmayo: la mayor parte de las mujeres de Midwich se han quedado embarazadas. El médico de la localidad, cuya mujer también está encinta, y una cientifica, enviada por el gobierno, deciden estudiar el caso a partir del momento en que los niños empiezan a mostrar una conducta tan sobrenatural como inhumana.

Ficha técnica

Video trailer de la película

Enlaces de descarga

Rip de Bluray

Descargar Village of the Damned (1995) REMUX Latino – CMHDD


Aportes de DPeliculasHDmega la pass es:dpeliculashdmega.org Aportes de CinemaniaHD la pass es:cinemaniahdd.com
Guardado en : Ciencia ficción , Suspenso , Terror

Películas relacionadas

  • La Máquina infernal (2022) WEB-DL 1080p Latino

    La Máquina infernal (2022) WEB-DL 1080p Latino

    2022
    La Máquina infernal (2022) WEB-DL 1080p Latino

    1h 47m 2022

    Descargar La Máquina infernal (2022) WEB-DL 1080p Latino. Un fan obsesivo saca de su escondite al solitario...

    Director: Andrew Hunt

    Género: Suspenso

    Actores: Rocco Salata

  • Borrego: Sal Del Camino (2022) HD 1080p Latino

    Borrego: Sal Del Camino (2022) HD 1080p Latino

    2022
    Borrego: Sal Del Camino (2022) HD 1080p Latino

    1h 42m 2022

    Descargar Borrego: Sal Del Camino (2022) HD 1080p Latino. Una joven botánica se traslada a un pequeño...

    Director: Jesse Harris

    Género: Crimen

    Actores: Olivia Trujillo

  • Borrego: Sal Del Camino (2022) REMUX 1080p Latino

    Borrego: Sal Del Camino (2022) REMUX 1080p Latino

    2022
    Borrego: Sal Del Camino (2022) REMUX 1080p Latino

    1h 42m 2022

    Descargar Borrego: Sal Del Camino (2022) REMUX 1080p Latino. Una joven botánica se traslada a un pequeño...

    Director: Jesse Harris

    Género: Crimen

    Actores: Olivia Trujillo

  • Tren Bala (2022) WEB-DL 4K UHD HDR Latino

    Tren Bala (2022) WEB-DL 4K UHD HDR Latino

    2022
    Tren Bala (2022) WEB-DL 4K UHD HDR Latino

    2h 7m 2022

    Descargar Tren Bala (2022) WEB-DL 4K UHD HDR Latino. El desafortunado asesino "Catarina" está decidido...

    Director: Paul Barry

    Género: 4K HDR

    Actores: Zooey Miyoshi

descargar Village of the Damned (1995) REMUX Latino – CMHDD Full 1080p 1080p gratis, Village of the Damned (1995) REMUX Latino – CMHDD Full 1080p mega 1 link, Village of the Damned (1995) REMUX Latino – CMHDD Full 1080p pelicula completa, descargar Village of the Damned (1995) REMUX Latino – CMHDD Full 1080p gratis en mega.

Village of the Damned (1995) REMUX Latino – CMHDD pelicula full hd, Village of the Damned (1995) REMUX Latino – CMHDD mega latino, Village of the Damned (1995) REMUX Latino – CMHDD 4k latino, Village of the Damned (1995) REMUX Latino – CMHDD pelicula completa, Village of the Damned (1995) REMUX Latino – CMHDD descargar gratis, descargar Village of the Damned (1995) REMUX Latino – CMHDD pelicula latino, Village of the Damned (1995) REMUX Latino – CMHDD 1 link mega, Village of the Damned (1995) REMUX Latino – CMHDD 1 link google drive, Village of the Damned (1995) REMUX Latino – CMHDD hd 1080p latino.
Comentarios 0