Vikingos (2016) Cuarta Temporada [Volumen 2] [Extended] Full 1080p Latino

1.195 vistas
1 estrella2 estrellas3 estrellas4 estrellas5 estrellas (4 votos, promedio: 4,00 de 5)
Cargando…

Información de Vikingos (2016) Cuarta Temporada [Volumen 2] [Extended] Full 1080p Latino

Datos de la película

  • Calidad: Full 1080p
  • Audio: Español Latino AC3 5.1 BLURAY - Ingles DTS 5.1 BLURAY
  • Subtitulos: Español Latino PGS - Ingles PGS
  • Resolución: 1920x1080p
  • Formato: MKV
  • Codec: H.264
  • Encoder: Dracarys
  • Mediainfo: Clic para Mostrar Datos Ver
  • Format                                   : Matroska
    Format version                           : Version 4 / Version 2
    File size                                : 1.87 GiB
    Duration                                 : 45 min 4 s
    Overall bit rate                         : 5 933 kb/s
    Movie name                               : CinemaniaHDD.net
    Encoded date                             : UTC 2018-11-10 20:49:54 / UTC 2018-11-05T10:18:51Z
    Writing application                      : mkvmerge v15.0.0 ('Duel with the Devil') 64-bit
    Writing library                          : libebml v1.3.5 + libmatroska v1.4.5 / Lavf57.7.2

    Video
    ID                                       : 1
    Format                                   : AVC
    Format/Info                              : Advanced Video Codec
    Format profile                           : [email protected]
    Format settings                          : CABAC / 4 Ref Frames
    Format settings, CABAC                   : Yes
    Format settings, RefFrames               : 4 frames
    Codec ID                                 : V_MPEG4/ISO/AVC
    Duration                                 : 45 min 4 s
    Bit rate                                 : 3 858 kb/s
    Width                                    : 1 920 pixels
    Height                                   : 1 080 pixels
    Display aspect ratio                     : 16:9
    Frame rate mode                          : Constant
    Frame rate                               : 23.976 (24000/1001) FPS
    Color space                              : YUV
    Chroma subsampling                       : 4:2:0
    Bit depth                                : 8 bits
    Scan type                                : Progressive
    Bits/(Pixel*Frame)                       : 0.078
    Stream size                              : 1.21 GiB (65%)
    Writing library                          : x264 core 148 r2708 86b7198
    Encoding settings                        : cabac=1 / ref=4 / deblock=1:0:0 / analyse=0x3:0x133 / me=esa / subme=10 / psy=1 / psy_rd=1.00:0.00 / mixed_ref=1 / me_range=24 / chroma_me=1 / trellis=2 / 8x8dct=1 / cqm=0 / deadzone=21,11 / fast_pskip=1 / chroma_qp_offset=-2 / threads=34 / lookahead_threads=5 / sliced_threads=0 / nr=0 / decimate=1 / interlaced=0 / bluray_compat=0 / constrained_intra=0 / bframes=8 / b_pyramid=2 / b_adapt=2 / b_bias=0 / direct=3 / weightb=1 / open_gop=0 / weightp=2 / keyint=240 / keyint_min=24 / scenecut=40 / intra_refresh=0 / rc_lookahead=60 / rc=crf / mbtree=1 / crf=20.0 / qcomp=0.60 / qpmin=0 / qpmax=69 / qpstep=4 / vbv_maxrate=62500 / vbv_bufsize=78125 / crf_max=0.0 / nal_hrd=none / filler=0 / ip_ratio=1.40 / aq=1:1.00
    Language                                 : English
    Default                                  : Yes
    Forced                                   : No
    Color range                              : Limited
    Color primaries                          : BT.709
    Transfer characteristics                 : BT.709
    Matrix coefficients                      : BT.709
    Statistics Tags Issue                    : mkvmerge v15.0.0 ('Duel with the Devil') 64-bit 2018-11-10 20:49:54 / mkvmerge v15.0.0 ('Duel with the Devil') 64-bit 2018-11-10 20:49:54 / UTC 2018-11-05T10:18:51Z
    FromStats_BitRate                        : 3959411
    FromStats_Duration                       : 00:45:04.619000000
    FromStats_FrameCount                     : 64846
    FromStats_StreamSize                     : 1338587401

    Audio #1
    ID                                       : 2
    Format                                   : AC-3
    Format/Info                              : Audio Coding 3
    Format settings, Endianness              : Big
    Codec ID                                 : A_AC3
    Duration                                 : 45 min 4 s
    Bit rate mode                            : Constant
    Bit rate                                 : 448 kb/s
    Channel(s)                               : 6 channels
    Channel positions                        : Front: L C R, Side: L R, LFE
    Sampling rate                            : 48.0 kHz
    Frame rate                               : 31.250 FPS (1536 SPF)
    Bit depth                                : 16 bits
    Compression mode                         : Lossy
    Delay relative to video                  : 24 ms
    Stream size                              : 144 MiB (8%)
    Language                                 : Spanish
    Service kind                             : Complete Main
    Default                                  : Yes
    Forced                                   : No
    Statistics Tags Issue                    : mkvmerge v15.0.0 ('Duel with the Devil') 64-bit 2018-11-10 20:49:54 / mkvmerge v15.0.0 ('Duel with the Devil') 64-bit 2018-11-10 20:49:54 / UTC 2018-11-05T10:18:51Z
    FromStats_BitRate                        : 448000
    FromStats_Duration                       : 00:45:04.608000000
    FromStats_FrameCount                     : 84519
    FromStats_StreamSize                     : 151458048

    Audio #2
    ID                                       : 3
    Format                                   : DTS
    Format/Info                              : Digital Theater Systems
    Mode                                     : 16
    Format settings, Endianness              : Big
    Codec ID                                 : A_DTS
    Duration                                 : 45 min 4 s
    Bit rate mode                            : Constant
    Bit rate                                 : 1 509 kb/s
    Channel(s)                               : 6 channels
    Channel positions                        : Front: L C R, Side: L R, LFE
    Sampling rate                            : 48.0 kHz
    Frame rate                               : 93.750 FPS (512 SPF)
    Bit depth                                : 24 bits
    Compression mode                         : Lossy
    Stream size                              : 487 MiB (25%)
    Language                                 : English
    Default                                  : No
    Forced                                   : No
    Statistics Tags Issue                    : mkvmerge v15.0.0 ('Duel with the Devil') 64-bit 2018-11-10 20:49:54 / mkvmerge v15.0.0 ('Duel with the Devil') 64-bit 2018-11-10 20:49:54 / UTC 2018-11-05T10:18:51Z
    FromStats_BitRate                        : 1508999
    FromStats_Duration                       : 00:45:04.683000000
    FromStats_FrameCount                     : 253564
    FromStats_StreamSize                     : 510170768

    Text #1
    ID                                       : 4
    Format                                   : PGS
    Muxing mode                              : zlib
    Codec ID                                 : S_HDMV/PGS
    Codec ID/Info                            : Picture based subtitle format used on BDs/HD-DVDs
    Language                                 : English
    Default                                  : No
    Forced                                   : No
    Statistics Tags Issue                    : mkvmerge v15.0.0 ('Duel with the Devil') 64-bit 2018-11-10 20:49:54 / mkvmerge v15.0.0 ('Duel with the Devil') 64-bit 2018-11-10 20:49:54 / UTC 2018-11-05T10:18:51Z
    FromStats_BitRate                        : 27330
    FromStats_Duration                       : 00:44:02.422000000
    FromStats_FrameCount                     : 844
    FromStats_StreamSize                     : 9027220

    Text #2
    ID                                       : 5
    Format                                   : PGS
    Muxing mode                              : zlib
    Codec ID                                 : S_HDMV/PGS
    Codec ID/Info                            : Picture based subtitle format used on BDs/HD-DVDs
    Language                                 : Spanish
    Default                                  : No
    Forced                                   : No
    Statistics Tags Issue                    : mkvmerge v15.0.0 ('Duel with the Devil') 64-bit 2018-11-10 20:49:54 / mkvmerge v15.0.0 ('Duel with the Devil') 64-bit 2018-11-10 20:49:54 / UTC 2018-11-05T10:18:51Z
    FromStats_BitRate                        : 22096
    FromStats_Duration                       : 00:44:01.914000000
    FromStats_FrameCount                     : 714
    FromStats_StreamSize                     : 7297017

    Menu
    00:00:00.000                             : :Chapter 1
    00:05:02.719                             : :Chapter 2
    00:09:35.825                             : :Chapter 3
    00:11:58.801                             : :Chapter 4
    00:19:35.216                             : :Chapter 5
    00:21:25.743                             : :Chapter 6
    00:25:36.368                             : :Chapter 7
    00:30:50.515                             : :Chapter 8
    00:35:18.283                             : :Chapter 9
    00:38:53.456                             : :Chapter 10
    00:40:49.447                             : :Chapter 11
    00:44:03.599                             : :Chapter 12

     

  • Peso: 2.00 GiB X Capitulo

Sinopsis

Batallas, traiciones y luchas de poder se propagan en la cuarta temporada de Vikingos, Segunda parte! Tras el aumento de la tensión entre los hijos de Ragnar a raíz de su regreso a Kattegat, Ivar “Sin Huesos” y él marchan para enfrentarse a los Sajones. Entretanto, una profecía que augura que una mujer será la que gobierne Kattegat agudiza el conflicto entre Aslaug y Lagertha. Con unos giros argumentales fascinantes, emociones a flor de piel y espectaculares efectos especiales, esta alucinante serie continúa su conquista. ¡Adéntrate detrás de las cámaras con este Blu-ray y encuentra más acción, más lujuria y más emoción con diez escenas inéditas!

Ficha técnica

Video trailer de la película

Enlaces de descarga

Rip de Bluray

Descargar Vikingos (2016) Cuarta Temporada [Volumen 2] [Extended] Full 1080p Latino




Aportes de DPeliculasHDmega la pass es:dpeliculashdmega.org Aportes de CinemaniaHD la pass es:cinemaniahdd.com

Películas relacionadas

  • El Vacio (2018) Temporada 1 NF 1080p Latino

    2018
    El Vacio (2018) Temporada 1 NF 1080p Latino

    0.0 0h 25m 2018

    Tres adolescentes despiertan en un reino extraño lleno de portales mágicos, enigmas desconcertantes...

    Director: Vito Viscomi

    Género: Animación

    Actores: Mark Hildreth

  • Wolf Warrior 2 (2017) 1080p Latino

    2017
    Wolf Warrior 2 (2017) 1080p Latino

    0.0 2h 6m 2017

    Secuela de la película de acción exitosa "Wolf Warrior" (2015) La operación más peligrosa de las...

    Director: Wu Jing

    Género: Acción

    Actores: Yu Qian

Comentarios 2
  • criss - 08 diciembre, 2018

    gracias por toda la serie, esperando la 5 temporada, son los mejores

  • jorge - 12 noviembre, 2018

    Vale compañero