Viena and the Fantomes (2020) WEB-DL 1080p Latino

16 vistas
1 estrella2 estrellas3 estrellas4 estrellas5 estrellas (2 votos, promedio: 5,00 de 5)
Cargando…

Información de Viena and the Fantomes (2020) WEB-DL 1080p Latino

Datos de la película

  • Calidad: WEBDL
  • Audio: Español Latino AC3 2.0 WEB-DL - Ingles AC3 5.1 WEB-DL
  • Subtitulos: No
  • Resolución: 1908x808
  • Formato: MKV
  • Codec: H.264
  • Encoder: cinemaniahdd
  • Mediainfo: Clic para Mostrar Datos Ver
  • Viena and the Fantomes (2020) WEB-DL 1080p Latino.mkv
    Format                      : Matroska
    Format version              : Version 4
    File size                   : 3.39 GiB
    Duration                    : 1 h 36 min
    Overall bit rate            : 5 042 kb/s
    Movie name                  : Viena and the Fantomes (2020) - CinemaniaHDD.Net
    Encoded date                : UTC 2020-06-30 04:31:21
    Writing application         : mkvmerge v46.0.0 ('No Deeper Escape') 64-bit
    Writing library             : libebml v1.3.10 + libmatroska v1.5.2
    Cover                       : Yes
    Attachments                 : cover.jpg

    Video
    ID                          : 1
    Format                      : AVC
    Format/Info                 : Advanced Video Codec
    Format profile              : High@L4
    Format settings             : CABAC / 5 Ref Frames
    Format settings, CABAC      : Yes
    Format settings, Reference  : 5 frames
    Codec ID                    : V_MPEG4/ISO/AVC
    Duration                    : 1 h 32 min
    Bit rate                    : 4 572 kb/s
    Width                       : 1 908 pixels
    Height                      : 808 pixels
    Display aspect ratio        : 2.35:1
    Frame rate mode             : Constant
    Frame rate                  : 23.976 (24000/1001) FPS
    Color space                 : YUV
    Chroma subsampling          : 4:2:0
    Bit depth                   : 8 bits
    Scan type                   : Progressive
    Bits/(Pixel*Frame)          : 0.124
    Stream size                 : 2.97 GiB (88%)
    Title                       : CinemaniaHDD
    Language                    : English
    Default                     : Yes
    Forced                      : No
    Color range                 : Limited
    Color primaries             : BT.709
    Transfer characteristics    : BT.709
    Matrix coefficients         : BT.709

    Audio #1
    ID                          : 2
    Format                      : AC-3
    Format/Info                 : Audio Coding 3
    Commercial name             : Dolby Digital
    Codec ID                    : A_AC3
    Duration                    : 1 h 32 min
    Bit rate mode               : Constant
    Bit rate                    : 256 kb/s
    Channel(s)                  : 2 channels
    Channel layout              : L R
    Sampling rate               : 44.1 kHz
    Frame rate                  : 28.711 FPS (1536 SPF)
    Compression mode            : Lossy
    Stream size                 : 170 MiB (5%)
    Title                       : Español latino [CinemaniaHDD]
    Language                    : Spanish
    Service kind                : Complete Main
    Default                     : Yes
    Forced                      : No

    Audio #2
    ID                          : 3
    Format                      : AC-3
    Format/Info                 : Audio Coding 3
    Commercial name             : Dolby Digital
    Codec ID                    : A_AC3
    Duration                    : 1 h 32 min
    Bit rate mode               : Constant
    Bit rate                    : 384 kb/s
    Channel(s)                  : 6 channels
    Channel layout              : L R C LFE Ls Rs
    Sampling rate               : 48.0 kHz
    Frame rate                  : 31.250 FPS (1536 SPF)
    Compression mode            : Lossy
    Stream size                 : 255 MiB (7%)
    Title                       : Inglés [CinemaniaHDD]
    Language                    : English
    Service kind                : Complete Main
    Default                     : No
    Forced                      : No

    Text
    ID                          : 4
    Format                      : UTF-8
    Codec ID                    : S_TEXT/UTF8
    Codec ID/Info               : UTF-8 Plain Text
    Duration                    : 1 h 20 min
    Bit rate                    : 0 b/s
    Count of elements           : 3
    Stream size                 : 87.0 Bytes (0%)
    Title                       : Forzados [CinemaniaHDD]
    Language                    : Spanish
    Default                     : Yes
    Forced                      : Yes

    Menu
    00:00:00.000                : en:1
    00:08:37.000                : en:2
    00:18:02.000                : en:3
    00:28:21.000                : en:4
    00:38:45.000                : en:5
    00:47:37.000                : en:6
    00:57:16.000                : en:7
    01:07:15.000                : en:8
    01:17:51.000                : en:9
    01:28:39.000                : en:10

     

  • Peso: 3.39 GiB

Sinopsis

Una adolescente inicia un viaje de autodescubrimiento y supervivencia como parte de un convoy de una banda de punk, a través de Estados Unidos en los años 80.

Ficha técnica

  • Titulo original: Viena and the Fantomes
  • Fecha de lanzamiento: 30-06-2020 (United States of America)
  • Director: Gerardo Naranjo
  • Género: Drama, Música, Romance
  • Puntuación: 5.0 2 votos
  • Duración:
    1h 45m

Video trailer de la película

Enlaces de descarga

Rip de Bluray

Descargar Viena and the Fantomes (2020) WEB-DL 1080p Latino




Aportes de DPeliculasHDmega la pass es:dpeliculashdmega.org Aportes de CinemaniaHD la pass es:cinemaniahdd.com
Guardado en : Drama , Música , Romance

Películas relacionadas

  • Días De Trueno (1990) 4K UHD HDR Latino

    Días De Trueno (1990) 4K UHD HDR Latino

    1990
    Días De Trueno (1990) 4K UHD HDR Latino

    0.0 1h 47m 1990

    Descargar Días De Trueno (1990) 4K UHD HDR Latino. Cole Trickle es un joven temerario que busca en la...

    Director: Tony Scott

    Género: 4K HDR

    Actores: Tom Cruise

  • Días De Trueno (1990) 1080p Latino

    Días De Trueno (1990) 1080p Latino

    1990
    Días De Trueno (1990) 1080p Latino

    0.0 1h 47m 1990

    Descargar Días De Trueno (1990) 1080p Latino. Cole Trickle es un joven temerario que busca en la emoción...

    Director: Tony Scott

    Género: Acción

    Actores: Tom Cruise

  • Días De Trueno (1990) Full HD 1080p Latino

    Días De Trueno (1990) Full HD 1080p Latino

    1990
    Días De Trueno (1990) Full HD 1080p Latino

    0.0 1h 47m 1990

    Descargar Días De Trueno (1990) Full HD 1080p Latino. Cole Trickle es un joven temerario que busca en...

    Director: Tony Scott

    Género: Acción

    Actores: Tom Cruise

  • Días De Trueno (1990) REMUX 1080p Latino

    Días De Trueno (1990) REMUX 1080p Latino

    1990
    Días De Trueno (1990) REMUX 1080p Latino

    0.0 1h 47m 1990

    Descargar Días De Trueno (1990) REMUX 1080p Latino. Cole Trickle es un joven temerario que busca en...

    Director: Tony Scott

    Género: Acción

    Actores: Tom Cruise

  • Trolls (2016) 4K UHD HDR Latino

    Trolls (2016) 4K UHD HDR Latino

    2016
    Trolls (2016) 4K UHD HDR Latino

    0.0 1h 35m 2016

    Descargar Trolls (2016) 4K UHD HDR Latino. Adorable y amable, a los trolls les encanta jugar. Pero un...

    Director: Walt Dohrn

    Género: 4K HDR

    Actores: Zooey Deschanel

Comentarios 0