×

¿Problemas para descargar con Mozilla, EDGE? Deshabilita la opción "Abrir vinculos en una pestaña nueva" tal como lo muestra ésta imagen.

Viejos (2021) AMZN WebDL 1080p Latino

192 vistas

Información de Viejos (2021) AMZN WebDL 1080p Latino

Datos de la película

  • Calidad: WEBDL
  • Audio: Español Latino AC3 5.1 WEB-DL - Ingles AC3 5.1 WEB-DL
  • Subtitulos: Español Latino SRT- FORZADOS SRT
  • Resolución: 1920x1080p
  • Formato: MKV
  • Codec: H.264
  • Encoder: Melkor
  • Mediainfo: Clic para Mostrar Datos Ver
  • Viejos (2021) AMZN WebDL 1080p Latino.mkv
    Format                      : Matroska
    Format version              : Version 4
    File size                   : 6.15 GiB
    Duration                    : 1 h 48 min
    Overall bit rate            : 8 123 kb/s
    Movie name                  : Old (2021) CinemaniaHDD.Net
    Encoded date                : UTC 2021-10-06 04:31:19
    Writing application         : mkvmerge v56.1.0 ('My Friend') 64-bit
    Writing library             : libebml v1.4.2 + libmatroska v1.6.4
    Attachments                 : CINEMANIAHD.png

    Video
    ID                          : 1
    Format                      : AVC
    Format/Info                 : Advanced Video Codec
    Format profile              : High@L4
    Format settings             : CABAC / 2 Ref Frames
    Format settings, CABAC      : Yes
    Format settings, Reference  : 2 frames
    Codec ID                    : V_MPEG4/ISO/AVC
    Duration                    : 1 h 48 min
    Bit rate                    : 6 969 kb/s
    Width                       : 1 920 pixels
    Height                      : 1 080 pixels
    Display aspect ratio        : 16:9
    Frame rate mode             : Constant
    Frame rate                  : 23.976 (24000/1001) FPS
    Color space                 : YUV
    Chroma subsampling          : 4:2:0
    Bit depth                   : 8 bits
    Scan type                   : Progressive
    Bits/(Pixel*Frame)          : 0.140
    Stream size                 : 5.28 GiB (86%)
    Title                       : Web HD1080p [CinemaniaHDD]
    Writing library             : x264 core 155 r2901 7d0ff22
    Default                     : Yes
    Forced                      : No
    Color range                 : Limited
    Color primaries             : BT.709
    Transfer characteristics    : BT.709
    Matrix coefficients         : BT.709

    Audio #1
    ID                          : 2
    Format                      : AC-3
    Format/Info                 : Audio Coding 3
    Commercial name             : Dolby Digital
    Codec ID                    : A_AC3
    Duration                    : 1 h 48 min
    Bit rate mode               : Constant
    Bit rate                    : 384 kb/s
    Channel(s)                  : 6 channels
    Channel layout              : L R C LFE Ls Rs
    Sampling rate               : 48.0 kHz
    Frame rate                  : 31.250 FPS (1536 SPF)
    Compression mode            : Lossy
    Stream size                 : 298 MiB (5%)
    Title                       : Español Latino [CinemaniaHDD]
    Language                    : Spanish
    Service kind                : Complete Main
    Default                     : Yes
    Forced                      : Yes

    Audio #2
    ID                          : 3
    Format                      : E-AC-3 JOC
    Format/Info                 : Enhanced AC-3 with Joint Object Coding
    Commercial name             : Dolby Digital Plus with Dolby Atmos
    Codec ID                    : A_EAC3
    Duration                    : 1 h 48 min
    Bit rate mode               : Constant
    Bit rate                    : 768 kb/s
    Channel(s)                  : 6 channels
    Channel layout              : L R C LFE Ls Rs
    Sampling rate               : 48.0 kHz
    Frame rate                  : 31.250 FPS (1536 SPF)
    Compression mode            : Lossy
    Stream size                 : 596 MiB (9%)
    Title                       : Ingles [CinemaniaHDD]
    Language                    : English
    Service kind                : Complete Main
    Default                     : No
    Forced                      : No
    Complexity index            : 16
    Number of dynamic objects   : 15
    Bed channel count           : 1 channel
    Bed channel configuration   : LFE

    Text #1
    ID                          : 4
    Format                      : UTF-8
    Codec ID                    : S_TEXT/UTF8
    Codec ID/Info               : UTF-8 Plain Text
    Duration                    : 1 h 42 min
    Bit rate                    : 0 b/s
    Count of elements           : 12
    Stream size                 : 421 Bytes (0%)
    Title                       : Forzados-SRT [CinemaniaHDD]
    Language                    : Spanish
    Default                     : Yes
    Forced                      : No

    Text #2
    ID                          : 5
    Format                      : UTF-8
    Codec ID                    : S_TEXT/UTF8
    Codec ID/Info               : UTF-8 Plain Text
    Duration                    : 1 h 47 min
    Bit rate                    : 49 b/s
    Count of elements           : 1298
    Stream size                 : 39.0 KiB (0%)
    Title                       : Español-SRT [CinemaniaHDD]
    Language                    : Spanish
    Default                     : No
    Forced                      : No

    Text #3
    ID                          : 6
    Format                      : UTF-8
    Codec ID                    : S_TEXT/UTF8
    Codec ID/Info               : UTF-8 Plain Text
    Duration                    : 1 h 39 min
    Bit rate                    : 53 b/s
    Count of elements           : 1418
    Stream size                 : 39.3 KiB (0%)
    Title                       : Ingles-SRT [CinemaniaHDD]
    Language                    : English
    Default                     : No
    Forced                      : No

  • Peso: 6.15 GiB

Sinopsis

Descargar Viejos (2021) AMZN WebDL 1080p Latino. Thriller sobre una familia que, estando de vacaciones en un paraíso tropical, descubre que la recóndita playa elegida para relajarse unas horas está haciéndoles envejecer rápidamente… reduciendo toda su vida a un único día.

Ficha técnica

Video trailer de la película

Enlaces de descarga

Rip de Bluray

Descargar Viejos (2021) AMZN WebDL 1080p Latino




Aportes de DPeliculasHDmega la pass es:dpeliculashdmega.org Aportes de CinemaniaHD la pass es:cinemaniahdd.com
Guardado en : Misterio , Suspenso , Terror

Películas relacionadas

  • Transfusion (2023) WEB-DL 4K UHD HDR Latino

    Transfusion (2023) WEB-DL 4K UHD HDR Latino

    2023
    Transfusion (2023) WEB-DL 4K UHD HDR Latino

    1h 45m 2023

    Descargar Transfusion (2023) WEB-DL 4K UHD HDR Latino. Un antiguo agente de las Fuerzas Especiales se...

    Director: Matt Nable

    Género: 4K HDR

    Actores: Trystan Go

  • Transfusion (2023) WEB-DL 1080p Latino

    Transfusion (2023) WEB-DL 1080p Latino

    2023
    Transfusion (2023) WEB-DL 1080p Latino

    1h 45m 2023

    Descargar Transfusion (2023) WEB-DL 1080p Latino. Un antiguo agente de las Fuerzas Especiales se ve empujado...

    Director: Matt Nable

    Género: Crimen

    Actores: Trystan Go

  • Asústame (2020) HD 1080p Latino

    Asústame (2020) HD 1080p Latino

    2020
    Asústame (2020) HD 1080p Latino

    1h 44m 2020

    Descargar Asústame (2020) HD 1080p Latino. Durante un corte de energía, dos extraños cuentan historias...

    Director: Josh Ruben

    Género: Comedia

    Actores: Rebecca Drysdale

  • Asústame (2020) PLACEBO Full HD 1080p Latino

    Asústame (2020) PLACEBO Full HD 1080p Latino

    2020
    Asústame (2020) PLACEBO Full HD 1080p Latino

    1h 44m 2020

    Descargar Asústame (2020) PLACEBO Full HD 1080p Latino. Durante un corte de energía, dos extraños...

    Director: Josh Ruben

    Género: Comedia

    Actores: Rebecca Drysdale

descargar Viejos (2021) AMZN WebDL 1080p Latino WEBDL 1080p gratis, Viejos (2021) AMZN WebDL 1080p Latino WEBDL mega 1 link, Viejos (2021) AMZN WebDL 1080p Latino WEBDL pelicula completa, descargar Viejos (2021) AMZN WebDL 1080p Latino WEBDL gratis en mega.

Viejos (2021) AMZN WebDL 1080p Latino pelicula full hd, Viejos (2021) AMZN WebDL 1080p Latino mega latino, Viejos (2021) AMZN WebDL 1080p Latino 4k latino, Viejos (2021) AMZN WebDL 1080p Latino pelicula completa, Viejos (2021) AMZN WebDL 1080p Latino descargar gratis, descargar Viejos (2021) AMZN WebDL 1080p Latino pelicula latino, Viejos (2021) AMZN WebDL 1080p Latino 1 link mega, Viejos (2021) AMZN WebDL 1080p Latino 1 link google drive, Viejos (2021) AMZN WebDL 1080p Latino hd 1080p latino.
Comentarios 0