Viejos (2021) REMUX 1080p Latino

45 vistas
1 estrella2 estrellas3 estrellas4 estrellas5 estrellas (Ninguna valoración todavía)
Cargando...

Información de Viejos (2021) REMUX 1080p Latino

Datos de la película

  • Calidad: Full 1080p
  • Audio: Se especifica abajo de la Sinopsis
  • Subtitulos: Español Latino PGS - Ingles PGS
  • Resolución: 1920x1080p
  • Formato: MKV
  • Codec: H.264
  • Encoder: Melkor
  • Mediainfo: Clic para Mostrar Datos Ver
  • Viejos (2021) REMUX 1080p Latino.mkv
    Format                      : Matroska
    Format version              : Version 4
    File size                   : 26.4 GiB
    Duration                    : 1 h 48 min
    Overall bit rate mode       : Variable
    Overall bit rate            : 34.8 Mb/s
    Movie name                  : Old (2021) CinemaniaHDD.Net
    Encoded date                : UTC 2021-10-14 21:24:41
    Writing application         : mkvmerge v56.1.0 ('My Friend') 64-bit
    Writing library             : libebml v1.4.2 + libmatroska v1.6.4
    Attachments                 : CINEMANIAHD.png

    Video
    ID                          : 1
    ID in the original source m : 4113 (0x1011)
    Format                      : AVC
    Format/Info                 : Advanced Video Codec
    Format profile              : High@L4.1
    Format settings             : CABAC / 4 Ref Frames
    Format settings, CABAC      : Yes
    Format settings, Reference  : 4 frames
    Codec ID                    : V_MPEG4/ISO/AVC
    Duration                    : 1 h 48 min
    Bit rate mode               : Variable
    Bit rate                    : 29.7 Mb/s
    Maximum bit rate            : 33.0 Mb/s
    Width                       : 1 920 pixels
    Height                      : 1 080 pixels
    Display aspect ratio        : 16:9
    Frame rate mode             : Constant
    Frame rate                  : 23.976 (24000/1001) FPS
    Color space                 : YUV
    Chroma subsampling          : 4:2:0
    Bit depth                   : 8 bits
    Scan type                   : Progressive
    Bits/(Pixel*Frame)          : 0.596
    Stream size                 : 22.5 GiB (85%)
    Title                       : REMUX HD1080p [CinemaniaHDD]
    Default                     : Yes
    Forced                      : Yes

    Audio #1
    ID                          : 2
    Format                      : E-AC-3
    Format/Info                 : Enhanced AC-3
    Commercial name             : Dolby Digital Plus
    Format profile              : Blu-ray Disc
    Codec ID                    : A_EAC3
    Duration                    : 1 h 48 min
    Bit rate mode               : Constant
    Bit rate                    : 768 kb/s
    Channel(s)                  : 8 channels
    Channel layout              : L R C LFE Ls Rs Lb Rb
    Sampling rate               : 48.0 kHz
    Frame rate                  : 31.250 FPS (1536 SPF)
    Compression mode            : Lossy
    Stream size                 : 596 MiB (2%)
    Title                       : Español Latino DDP [CinemaniaHDD]
    Language                    : Spanish
    Service kind                : Complete Main
    Default                     : Yes
    Forced                      : Yes

    Audio #2
    ID                          : 3
    ID in the original source m : 4352 (0x1100)
    Format                      : MLP FBA 16-ch
    Format/Info                 : Meridian Lossless Packing FBA with 16-channel presentation
    Commercial name             : Dolby TrueHD with Dolby Atmos
    Codec ID                    : A_TRUEHD
    Duration                    : 1 h 48 min
    Bit rate mode               : Variable
    Bit rate                    : 3 411 kb/s
    Maximum bit rate            : 4 908 kb/s
    Channel(s)                  : 8 channels
    Channel layout              : L R C LFE Ls Rs Lb Rb
    Sampling rate               : 48.0 kHz
    Frame rate                  : 1 200.000 FPS (40 SPF)
    Compression mode            : Lossless
    Stream size                 : 2.58 GiB (10%)
    Title                       : Ingles THD[CinemaniaHDD]
    Language                    : English
    Default                     : No
    Forced                      : No
    Number of dynamic objects   : 11
    Bed channel count           : 1 channel
    Bed channel configuration   : LFE

    Audio #3
    ID                          : 4
    Format                      : AC-3
    Format/Info                 : Audio Coding 3
    Commercial name             : Dolby Digital
    Codec ID                    : A_AC3
    Duration                    : 1 h 48 min
    Bit rate mode               : Constant
    Bit rate                    : 448 kb/s
    Channel(s)                  : 6 channels
    Channel layout              : L R C LFE Ls Rs
    Sampling rate               : 48.0 kHz
    Frame rate                  : 31.250 FPS (1536 SPF)
    Compression mode            : Lossy
    Stream size                 : 348 MiB (1%)
    Title                       : Español Latino AC3 [CinemaniaHDD]
    Language                    : Spanish
    Service kind                : Complete Main
    Default                     : No
    Forced                      : No

    Audio #4
    ID                          : 5
    ID in the original source m : 4352 (0x1100)
    Format                      : AC-3
    Format/Info                 : Audio Coding 3
    Commercial name             : Dolby Digital
    Codec ID                    : A_AC3
    Duration                    : 1 h 48 min
    Bit rate mode               : Constant
    Bit rate                    : 448 kb/s
    Channel(s)                  : 6 channels
    Channel layout              : L R C LFE Ls Rs
    Sampling rate               : 48.0 kHz
    Frame rate                  : 31.250 FPS (1536 SPF)
    Compression mode            : Lossy
    Stream size                 : 348 MiB (1%)
    Title                       : Ingles AC3 [CinemaniaHDD]
    Language                    : English
    Service kind                : Complete Main
    Default                     : No
    Forced                      : No
     

    Text #1
    ID                          : 6
    ID in the original source m : 4609 (0x1201)
    Format                      : PGS
    Muxing mode                 : zlib
    Codec ID                    : S_HDMV/PGS
    Codec ID/Info               : Picture based subtitle format used on BDs/HD-DVDs
    Duration                    : 1 h 47 min
    Bit rate                    : 34.0 kb/s
    Count of elements           : 2599
    Stream size                 : 26.2 MiB (0%)
    Title                       : Español-PGS [CinemaniaHDD]
    Language                    : Spanish
    Default                     : No
    Forced                      : No
     

    Text #2
    ID                          : 7
    ID in the original source m : 4608 (0x1200)
    Format                      : PGS
    Muxing mode                 : zlib
    Codec ID                    : S_HDMV/PGS
    Codec ID/Info               : Picture based subtitle format used on BDs/HD-DVDs
    Duration                    : 1 h 43 min
    Bit rate                    : 40.7 kb/s
    Count of elements           : 2830
    Stream size                 : 30.1 MiB (0%)
    Title                       : Ingles-PGS [CinemaniaHDD]
    Language                    : English
    Default                     : No
    Forced                      : No
     

    Text #3
    ID                          : 8
    Format                      : UTF-8
    Codec ID                    : S_TEXT/UTF8
    Codec ID/Info               : UTF-8 Plain Text
    Duration                    : 1 h 42 min
    Bit rate                    : 0 b/s
    Count of elements           : 12
    Stream size                 : 419 Bytes (0%)
    Title                       : Forzados-SRT [CinemaniaHDD]
    Language                    : Spanish
    Default                     : Yes
    Forced                      : Yes

    Text #4
    ID                          : 9
    Format                      : UTF-8
    Codec ID                    : S_TEXT/UTF8
    Codec ID/Info               : UTF-8 Plain Text
    Duration                    : 1 h 43 min
    Bit rate                    : 57 b/s
    Count of elements           : 1415
    Stream size                 : 43.6 KiB (0%)
    Title                       : Español-SRT [CinemaniaHDD]
    Language                    : Spanish
    Default                     : No
    Forced                      : No

    Menu
    00:00:00.000                : Chapter 01
    00:05:50.099                : Chapter 02
    00:13:46.617                : Chapter 03
    00:18:35.447                : Chapter 04
    00:23:05.675                : Chapter 05
    00:28:33.044                : Chapter 06
    00:32:43.419                : Chapter 07
    00:38:01.654                : Chapter 08
    00:43:25.894                : Chapter 09
    00:47:54.371                : Chapter 10
    00:53:05.807                : Chapter 11
    01:01:32.939                : Chapter 12
    01:05:11.365                : Chapter 13
    01:08:52.336                : Chapter 14
    01:12:44.068                : Chapter 15
    01:18:59.568                : Chapter 16
    01:23:29.796                : Chapter 17
    01:29:13.222                : Chapter 18
    01:34:26.619                : Chapter 19
    01:41:18.280                : Chapter 20

  • Peso: 26.4 GiB

Sinopsis

Descargar Viejos (2021) REMUX 1080p Latino. Thriller sobre una familia que, estando de vacaciones en un paraíso tropical, descubre que la recóndita playa elegida para relajarse unas horas está haciéndoles envejecer rápidamente… reduciendo toda su vida a un único día.

Español Latino EAC3 7.1 & AC3 5.1 – True-HD 7.1 & AC3 5.1

Ficha técnica

Video trailer de la película

Enlaces de descarga

Rip de Bluray

Descargar Viejos (2021) REMUX 1080p Latino




Aportes de DPeliculasHDmega la pass es:dpeliculashdmega.org Aportes de CinemaniaHD la pass es:cinemaniahdd.com
Guardado en : Misterio , Remux , Suspenso , Terror

Películas relacionadas

  • Amor Eterno (2014) REMUX 1080p Latino

    Amor Eterno (2014) REMUX 1080p Latino

    2014
    Amor Eterno (2014) REMUX 1080p Latino

    0.0 1h 45m 2014

    Descargar Amor Eterno (2014) REMUX 1080p Latino. Jade, una tímida joven de familia privilegiada, y David,...

    Director: Steven Ritzi

    Género: Drama

    Actores: Zechariah Pierce

  • Ex Maquina (2014) REMUX 1080p Latino

    Ex Maquina (2014) REMUX 1080p Latino

    2015
    Ex Maquina (2014) REMUX 1080p Latino

    0.0 1h 48m 2015

    Descargar Ex Maquina (2014) REMUX 1080p Latino. Nathan, un programador multimillonario con fama de reclusivo,...

    Director: Tonje S. Rolland

    Género: Ciencia ficción

    Actores: Tiffany Pisani

  • Un sueño posible (2009) REMUX 1080p Latino

    Un sueño posible (2009) REMUX 1080p Latino

    2009
    Un sueño posible (2009) REMUX 1080p Latino

    0.0 2h 9m 2009

    Descargar Un sueño posible (2009) REMUX 1080p Latino. Basada en hechos reales, narra la historia de...

    Director: John Lee Hancock

    Género: Drama

    Actores: Whitney Branan

Viejos (2021) REMUX 1080p Latino pelicula full hd, Viejos (2021) REMUX 1080p Latino mega latino, Viejos (2021) REMUX 1080p Latino 4k latino, Viejos (2021) REMUX 1080p Latino pelicula completa, Viejos (2021) REMUX 1080p Latino descargar gratis, descargar Viejos (2021) REMUX 1080p Latino pelicula latino, Viejos (2021) REMUX 1080p Latino 1 link mega, Viejos (2021) REMUX 1080p Latino 1 link google drive, Viejos (2021) REMUX 1080p Latino hd 1080p latino.
Comentarios 1
  • ocpgaiden - 19 octubre, 2021

    Gracias por Viejos Remux, saludos