×

¿Problemas para descargar con Mozilla, EDGE? Deshabilita la opción "Abrir vinculos en una pestaña nueva" tal como lo muestra ésta imagen.

Vidas Pasadas (2023) WEB-DL 1080p Latino

57 vistas

Información de Vidas Pasadas (2023) WEB-DL 1080p Latino

Datos de la película

  • Calidad: WEBDL
  • Audio: Se especifica abajo de la Sinopsis
  • Subtitulos: Español Latino SRT- FORZADOS SRT
  • Resolución: 1920x1080p
  • Formato: MKV
  • Codec: H.264
  • Encoder: Melkor
  • Mediainfo: Clic para Mostrar Datos Ver
  • Past Lives (2023) WEB 1080p Latino.mkv
    Format                      : Matroska
    Format version              : Version 4
    File size                   : 6.13 GiB
    Duration                    : 1 h 45 min
    Overall bit rate            : 8 316 kb/s
    Movie name                  : Past Lives (2023) CinemaniaHDD.Net
    Encoded date                : UTC 2024-03-12 05:06:38
    Writing application         : mkvmerge v56.1.0 ('My Friend') 64-bit
    Writing library             : libebml v1.4.2 + libmatroska v1.6.4
    Attachments                 : CINEMANIAHD.png
    Site                        : CinemaniaHDD.Net
    Uploader                    : Melkor

    Video
    ID                          : 1
    Format                      : AVC
    Format/Info                 : Advanced Video Codec
    Format profile              : High@L4
    Format settings             : CABAC / 2 Ref Frames
    Format settings, CABAC      : Yes
    Format settings, Reference  : 2 frames
    Codec ID                    : V_MPEG4/ISO/AVC
    Duration                    : 1 h 45 min
    Bit rate                    : 7 674 kb/s
    Width                       : 1 920 pixels
    Height                      : 1 080 pixels
    Display aspect ratio        : 16:9
    Frame rate mode             : Constant
    Frame rate                  : 23.976 (24000/1001) FPS
    Color space                 : YUV
    Chroma subsampling          : 4:2:0
    Bit depth                   : 8 bits
    Scan type                   : Progressive
    Bits/(Pixel*Frame)          : 0.154
    Stream size                 : 5.65 GiB (92%)
    Title                       : Web HD1080p [CinemaniaHDD]
    Writing library             : x264 core 155 r2901 7d0ff22
    Default                     : Yes
    Forced                      : Yes
    Color range                 : Limited
    Color primaries             : BT.709
    Transfer characteristics    : BT.709
    Matrix coefficients         : BT.709

    Audio #1
    ID                          : 2
    Format                      : AC-3
    Format/Info                 : Audio Coding 3
    Commercial name             : Dolby Digital
    Codec ID                    : A_AC3
    Duration                    : 1 h 45 min
    Bit rate mode               : Constant
    Bit rate                    : 256 kb/s
    Channel(s)                  : 2 channels
    Channel layout              : L R
    Sampling rate               : 48.0 kHz
    Frame rate                  : 31.250 FPS (1536 SPF)
    Compression mode            : Lossy
    Stream size                 : 193 MiB (3%)
    Title                       : Español Latino AC3 [CinemaniaHDD]
    Language                    : Spanish
    Service kind                : Complete Main
    Default                     : Yes
    Forced                      : Yes

    Audio #2
    ID                          : 3
    Format                      : AC-3
    Format/Info                 : Audio Coding 3
    Commercial name             : Dolby Digital
    Codec ID                    : A_AC3
    Duration                    : 1 h 45 min
    Bit rate mode               : Constant
    Bit rate                    : 384 kb/s
    Channel(s)                  : 6 channels
    Channel layout              : L R C LFE Ls Rs
    Sampling rate               : 48.0 kHz
    Frame rate                  : 31.250 FPS (1536 SPF)
    Compression mode            : Lossy
    Stream size                 : 290 MiB (5%)
    Title                       : Coreano [CinemaniaHDD]
    Language                    : Korean
    Service kind                : Complete Main
    Default                     : No
    Forced                      : No

    Text #1
    ID                          : 4
    Format                      : UTF-8
    Codec ID                    : S_TEXT/UTF8
    Codec ID/Info               : UTF-8 Plain Text
    Duration                    : 1 h 7 min
    Bit rate                    : 0 b/s
    Count of elements           : 13
    Stream size                 : 342 Bytes (0%)
    Title                       : Forzados-SRT [CinemaniaHDD]
    Language                    : Spanish
    Default                     : Yes
    Forced                      : Yes

    Text #2
    ID                          : 5
    Format                      : UTF-8
    Codec ID                    : S_TEXT/UTF8
    Codec ID/Info               : UTF-8 Plain Text
    Duration                    : 1 h 35 min
    Bit rate                    : 32 b/s
    Count of elements           : 878
    Stream size                 : 22.4 KiB (0%)
    Title                       : Español-SRT [CinemaniaHDD]
    Language                    : Spanish
    Default                     : No
    Forced                      : No

  • Peso: 6.13 GiB

Sinopsis

Descargar Vidas Pasadas (2023) WEB-DL 1080p Latino. La familia de Nora emigra a Canadá cuando ella tiene 10 años. Pierde el contacto con su amor de la infancia. Muchos años después, cuando Nora está estudiando teatro en Nueva York, se reencuentra con él online.

Español Latino AC3 2.0 Web – Coreano AC3 5.1 Web

Ficha técnica

Video trailer de la película

Enlaces de descarga

Rip de Bluray

Descargar Vidas Pasadas (2023) WEB-DL 1080p Latino




Aportes de DPeliculasHDmega la pass es:dpeliculashdmega.org Aportes de CinemaniaHD la pass es:cinemaniahdd.com Aportes recientes:cinemaniahdd.net
Guardado en : Drama , Romance

Películas relacionadas

descargar Vidas Pasadas (2023) WEB-DL 1080p Latino WEBDL 1080p gratis, Vidas Pasadas (2023) WEB-DL 1080p Latino WEBDL mega 1 link, Vidas Pasadas (2023) WEB-DL 1080p Latino WEBDL pelicula completa, descargar Vidas Pasadas (2023) WEB-DL 1080p Latino WEBDL gratis en mega.

Vidas Pasadas (2023) WEB-DL 1080p Latino pelicula full hd, Vidas Pasadas (2023) WEB-DL 1080p Latino mega latino, Vidas Pasadas (2023) WEB-DL 1080p Latino 4k latino, Vidas Pasadas (2023) WEB-DL 1080p Latino pelicula completa, Vidas Pasadas (2023) WEB-DL 1080p Latino descargar gratis, descargar Vidas Pasadas (2023) WEB-DL 1080p Latino pelicula latino, Vidas Pasadas (2023) WEB-DL 1080p Latino 1 link mega, Vidas Pasadas (2023) WEB-DL 1080p Latino 1 link google drive, Vidas Pasadas (2023) WEB-DL 1080p Latino hd 1080p latino.
Comentarios 0