×

¿Problemas para descargar con Mozilla, EDGE? Deshabilita la opción "Abrir vinculos en una pestaña nueva" tal como lo muestra ésta imagen.

Victor Frankenstein (2015) Full HD 1080p Latino-CMHDD

62 vistas

Información de Victor Frankenstein (2015) Full HD 1080p Latino-CMHDD

Datos de la película

  • Calidad: Full 1080p
  • Audio: Español Latino AC3 5.1 BLURAY - Ingles DTS 5.1 BLURAY
  • Subtitulos: Español Latino PGS - Ingles PGS
  • Resolución: 1920x1080p
  • Formato: MKV
  • Codec: H.264
  • Encoder: CinefiloCool
  • Mediainfo: Clic para Mostrar Datos Ver
  • Victor.Frankenstein.2015.Bluray.FullHD.1080p.x264.Latino-CC@CMHDD.mkv
    Format                      : Matroska
    Format version              : Version 4
    File size                   : 6.11 GiB
    Duration                    : 1 h 49 min
    Overall bit rate            : 7 958 kb/s
    Movie name                  : Victor Frankenstein (2015) CinemaniaHDD.Net
    Encoded date                : UTC 2024-04-22 00:07:49
    Writing application         : mkvmerge v56.1.0 ('My Friend') 64-bit
    Writing library             : libebml v1.4.2 + libmatroska v1.6.4
    Attachments                 : CINEMANIAHD.png

    Video
    ID                          : 1
    Format                      : AVC
    Format/Info                 : Advanced Video Codec
    Format profile              : High@L4.1
    Format settings             : CABAC / 4 Ref Frames
    Format settings, CABAC      : Yes
    Format settings, Reference  : 4 frames
    Codec ID                    : V_MPEG4/ISO/AVC
    Duration                    : 1 h 49 min
    Bit rate                    : 5 979 kb/s
    Width                       : 1 920 pixels
    Height                      : 1 080 pixels
    Display aspect ratio        : 16:9
    Frame rate mode             : Constant
    Frame rate                  : 23.976 (24000/1001) FPS
    Color space                 : YUV
    Chroma subsampling          : 4:2:0
    Bit depth                   : 8 bits
    Scan type                   : Progressive
    Bits/(Pixel*Frame)          : 0.120
    Stream size                 : 4.59 GiB (75%)
    Title                       : Full HD1080p [CinemaniaHDD]
    Writing library             : x264 core 163 r3059 b684ebe0
    Encoding settings           : cabac=1 / ref=4 / deblock=1:0:0 / analyse=0x3:0x133 / me=tesa / subme=11 / psy=1 / psy_rd=1.00:0.00 / mixed_ref=1 / me_range=24 / chroma_me=1 / trellis=2 / 8x8dct=1 / cqm=0 / deadzone=21,11 / fast_pskip=0 / chroma_qp_offset=-2 / threads=24 / lookahead_threads=6 / sliced_threads=0 / nr=0 / decimate=1 / interlaced=0 / bluray_compat=0 / constrained_intra=0 / bframes=16 / b_pyramid=2 / b_adapt=2 / b_bias=0 / direct=3 / weightb=1 / open_gop=0 / weightp=2 / keyint=240 / keyint_min=24 / scenecut=40 / intra_refresh=0 / rc_lookahead=60 / rc=crf / mbtree=1 / crf=20.0 / qcomp=0.60 / qpmin=0 / qpmax=69 / qpstep=4 / vbv_maxrate=62500 / vbv_bufsize=78125 / crf_max=0.0 / nal_hrd=none / filler=0 / ip_ratio=1.40 / aq=1:1.00
    Default                     : Yes
    Forced                      : Yes
    Color range                 : Limited
    Color primaries             : BT.709
    Transfer characteristics    : BT.709
    Matrix coefficients         : BT.709

    Audio #1
    ID                          : 2
    Format                      : AC-3
    Format/Info                 : Audio Coding 3
    Commercial name             : Dolby Digital
    Codec ID                    : A_AC3
    Duration                    : 1 h 49 min
    Bit rate mode               : Constant
    Bit rate                    : 448 kb/s
    Channel(s)                  : 6 channels
    Channel layout              : L R C LFE Ls Rs
    Sampling rate               : 48.0 kHz
    Frame rate                  : 31.250 FPS (1536 SPF)
    Compression mode            : Lossy
    Stream size                 : 352 MiB (6%)
    Title                       : Español Latino [CinemaniaHDD]
    Language                    : Spanish
    Service kind                : Complete Main
    Default                     : Yes
    Forced                      : Yes

    Audio #2
    ID                          : 3
    Format                      : DTS ES
    Format/Info                 : Digital Theater Systems
    Commercial name             : DTS-ES Matrix
    Codec ID                    : A_DTS
    Duration                    : 1 h 49 min
    Bit rate mode               : Constant
    Bit rate                    : 1 509 kb/s
    Channel(s)                  : 6 channels
    Channel(s)_Original         : 7 channels
    ChannelLayout_Original      : C L R Ls Rs Cs LFE
    Sampling rate               : 48.0 kHz
    Frame rate                  : 93.750 FPS (512 SPF)
    Bit depth                   : 24 bits
    Compression mode            : Lossy
    Stream size                 : 1.16 GiB (19%)
    Title                       : Ingles [CinemaniaHDD]
    Language                    : English
    Default                     : No
    Forced                      : No

    Text #1
    ID                          : 4
    Format                      : PGS
    Muxing mode                 : zlib
    Codec ID                    : S_HDMV/PGS
    Codec ID/Info               : Picture based subtitle format used on BDs/HD-DVDs
    Duration                    : 1 h 49 min
    Bit rate                    : 29.1 kb/s
    Count of elements           : 2338
    Stream size                 : 22.7 MiB (0%)
    Title                       : Español-PGS [CinemaniaHDD]
    Language                    : Spanish
    Default                     : No
    Forced                      : No

    Text #2
    ID                          : 5
    Format                      : PGS
    Muxing mode                 : zlib
    Codec ID                    : S_HDMV/PGS
    Codec ID/Info               : Picture based subtitle format used on BDs/HD-DVDs
    Duration                    : 1 h 43 min
    Bit rate                    : 38.0 kb/s
    Count of elements           : 3092
    Stream size                 : 28.0 MiB (0%)
    Title                       : Ingles-PGS [CinemaniaHDD]
    Language                    : English
    Default                     : No
    Forced                      : No

    Text #3
    ID                          : 6
    Format                      : UTF-8
    Codec ID                    : S_TEXT/UTF8
    Codec ID/Info               : UTF-8 Plain Text
    Duration                    : 1 h 3 min
    Bit rate                    : 0 b/s
    Count of elements           : 10
    Stream size                 : 247 Bytes (0%)
    Title                       : Forzados-SRT [CinemaniaHDD]
    Language                    : Spanish
    Default                     : Yes
    Forced                      : Yes

    Text #4
    ID                          : 7
    Format                      : UTF-8
    Codec ID                    : S_TEXT/UTF8
    Codec ID/Info               : UTF-8 Plain Text
    Duration                    : 1 h 49 min
    Bit rate                    : 48 b/s
    Count of elements           : 1169
    Stream size                 : 38.5 KiB (0%)
    Title                       : Español-SRT [CinemaniaHDD]
    Language                    : Spanish
    Default                     : No
    Forced                      : No

    Menu
    00:00:00.000                : Chapter 1
    00:04:07.372                : Chapter 2
    00:08:06.903                : Chapter 3
    00:11:14.674                : Chapter 4
    00:15:20.378                : Chapter 5
    00:18:58.554                : Chapter 6
    00:22:27.263                : Chapter 7
    00:26:06.857                : Chapter 8
    00:28:59.237                : Chapter 9
    00:32:02.379                : Chapter 10
    00:36:01.451                : Chapter 11
    00:41:11.427                : Chapter 12
    00:46:17.692                : Chapter 13
    00:51:48.480                : Chapter 14
    00:56:42.691                : Chapter 15
    00:59:55.509                : Chapter 16
    01:02:37.587                : Chapter 17
    01:06:57.180                : Chapter 18
    01:11:25.198                : Chapter 19
    01:15:14.051                : Chapter 20
    01:18:10.352                : Chapter 21
    01:21:06.278                : Chapter 22
    01:25:20.490                : Chapter 23
    01:28:17.542                : Chapter 24
    01:33:35.276                : Chapter 25
    01:37:51.783                : Chapter 26
    01:41:32.920                : Chapter 27
    01:43:34.375                : Chapter 28

  • Peso: 6.11 GiB

Sinopsis

Descargar Victor Frankenstein (2015) Full HD 1080p Latino-CMHDD. En los ambiciosos planes del doctor para devolver la vida a un cuerpo inerte a través de la ciencia, Igor (Daniel Radcliffe, ‘Harry Potter y las reliquias de la muerte: Parte 2’) será una parte esencial para cumplir su objetivo. Narrada desde el punto de vista distorsionado y cómico del auxiliar de experimentos, la película revivirá los sucesos que llevaron al genio de la medicina a jugar a ser Dios. Desenterrar cadáveres, asistirle en la cirugía post mortem o acompañarle a robar miembros por la noche, serán algunas de las oscuras misiones de este peculiar y único personaje. Este torpe y sucio compañero de fechorías será el centro de un mundo terrorífico a la vez que conmovedor sobre el poder de la ciencia y la imaginación humana.

Ficha técnica

Video trailer de la película

Enlaces de descarga

Rip de Bluray

Descargar Victor Frankenstein (2015) Full HD 1080p Latino-CMHDD




Aportes de DPeliculasHDmega la pass es:dpeliculashdmega.org Aportes de CinemaniaHD la pass es:cinemaniahdd.com Aportes recientes:cinemaniahdd.net

Películas relacionadas

descargar Victor Frankenstein (2015) Full HD 1080p Latino-CMHDD Full 1080p 1080p gratis, Victor Frankenstein (2015) Full HD 1080p Latino-CMHDD Full 1080p mega 1 link, Victor Frankenstein (2015) Full HD 1080p Latino-CMHDD Full 1080p pelicula completa, descargar Victor Frankenstein (2015) Full HD 1080p Latino-CMHDD Full 1080p gratis en mega.

Victor Frankenstein (2015) Full HD 1080p Latino-CMHDD pelicula full hd, Victor Frankenstein (2015) Full HD 1080p Latino-CMHDD mega latino, Victor Frankenstein (2015) Full HD 1080p Latino-CMHDD 4k latino, Victor Frankenstein (2015) Full HD 1080p Latino-CMHDD pelicula completa, Victor Frankenstein (2015) Full HD 1080p Latino-CMHDD descargar gratis, descargar Victor Frankenstein (2015) Full HD 1080p Latino-CMHDD pelicula latino, Victor Frankenstein (2015) Full HD 1080p Latino-CMHDD 1 link mega, Victor Frankenstein (2015) Full HD 1080p Latino-CMHDD 1 link google drive, Victor Frankenstein (2015) Full HD 1080p Latino-CMHDD hd 1080p latino.
Comentarios 0