×

¿Problemas para descargar con Mozilla, EDGE? Deshabilita la opción "Abrir vinculos en una pestaña nueva" tal como lo muestra ésta imagen.

Vicious Fun (2020) TNTGO WEB-DL 1080p Latino

349 vistas

Información de Vicious Fun (2020) TNTGO WEB-DL 1080p Latino

Datos de la película

  • Calidad: WEBDL
  • Audio: Español Latino AC3 2.0 - Ingles AC3 2.0
  • Subtitulos: Español Latino SRT- FORZADOS SRT
  • Resolución: 1920x1080
  • Formato: MKV
  • Codec: H.264
  • Encoder: cinemaniahdd
  • Mediainfo: Clic para Mostrar Datos Ver
  • Vicious Fun (2020) TNTGO WEB-DL 1080p Latino [CNMNHDD].mkv
    Format                      : Matroska
    Format version              : Version 4
    File size                   : 2.06 GiB
    Duration                    : 1 h 38 min
    Overall bit rate            : 2 993 kb/s
    Movie name                  : Vicious Fun (2020) - CinemaniaHDD.Net
    Encoded date                : UTC 2021-02-02 23:52:54
    Writing application         : mkvmerge v51.0.0 ('I Wish') 64-bit
    Writing library             : libebml v1.4.0 + libmatroska v1.6.2

    Video
    ID                          : 1
    Format                      : AVC
    Format/Info                 : Advanced Video Codec
    Format profile              : High@L5
    Format settings             : CABAC / 5 Ref Frames
    Format settings, CABAC      : Yes
    Format settings, Reference  : 5 frames
    Codec ID                    : V_MPEG4/ISO/AVC
    Duration                    : 1 h 38 min
    Bit rate                    : 2 478 kb/s
    Width                       : 1 920 pixels
    Height                      : 1 080 pixels
    Display aspect ratio        : 16:9
    Frame rate mode             : Constant
    Frame rate                  : 29.970 (30000/1001) FPS
    Color space                 : YUV
    Chroma subsampling          : 4:2:0
    Bit depth                   : 8 bits
    Scan type                   : Progressive
    Bits/(Pixel*Frame)          : 0.040
    Stream size                 : 1.70 GiB (83%)
    Title                       : CinemaniaHDD
    Default                     : Yes
    Forced                      : No

    Audio #1
    ID                          : 2
    Format                      : AC-3
    Format/Info                 : Audio Coding 3
    Commercial name             : Dolby Digital
    Codec ID                    : A_AC3
    Duration                    : 1 h 38 min
    Bit rate mode               : Constant
    Bit rate                    : 256 kb/s
    Channel(s)                  : 2 channels
    Channel layout              : L R
    Sampling rate               : 48.0 kHz
    Frame rate                  : 31.250 FPS (1536 SPF)
    Compression mode            : Lossy
    Stream size                 : 180 MiB (9%)
    Title                       : Español latino [CinemaniaHDD]
    Language                    : Spanish
    Service kind                : Complete Main
    Default                     : Yes
    Forced                      : No

    Audio #2
    ID                          : 3
    Format                      : AC-3
    Format/Info                 : Audio Coding 3
    Commercial name             : Dolby Digital
    Codec ID                    : A_AC3
    Duration                    : 1 h 38 min
    Bit rate mode               : Constant
    Bit rate                    : 256 kb/s
    Channel(s)                  : 2 channels
    Channel layout              : L R
    Sampling rate               : 48.0 kHz
    Frame rate                  : 31.250 FPS (1536 SPF)
    Compression mode            : Lossy
    Stream size                 : 180 MiB (9%)
    Title                       : Inglés [CinemaniaHDD]
    Language                    : English
    Service kind                : Complete Main
    Default                     : No
    Forced                      : No

    Text #1
    ID                          : 4
    Format                      : UTF-8
    Codec ID                    : S_TEXT/UTF8
    Codec ID/Info               : UTF-8 Plain Text
    Duration                    : 1 h 24 min
    Bit rate                    : 0 b/s
    Count of elements           : 7
    Stream size                 : 152 Bytes (0%)
    Title                       : Forzados [CinemaniaHDD]
    Language                    : Spanish
    Default                     : Yes
    Forced                      : Yes

    Text #2
    ID                          : 5
    Format                      : UTF-8
    Codec ID                    : S_TEXT/UTF8
    Codec ID/Info               : UTF-8 Plain Text
    Duration                    : 1 h 35 min
    Bit rate                    : 52 b/s
    Count of elements           : 1304
    Stream size                 : 36.9 KiB (0%)
    Title                       : Español latino [CinemaniaHDD]
    Language                    : Spanish
    Default                     : No
    Forced                      : No

     

  • Peso: 2.06 GiB

Sinopsis

Un perdedor a quien se le está pasando la vida, accidentamente se topa con un grupo de autoayuda compuesto por asesinos seriales, en un sótano secreto. ¿Podrá combinar su sano juicio con cinco asesinos y salir con vida?

Ficha técnica

Video trailer de la película

Enlaces de descarga

Rip de Bluray

Descargar Vicious Fun (2020) TNTGO WEB-DL 1080p Latino




Aportes de DPeliculasHDmega la pass es:dpeliculashdmega.org Aportes de CinemaniaHD la pass es:cinemaniahdd.com
Guardado en : Comedia , Terror

Películas relacionadas

  • Tren Bala (2022) WEB-DL 4K UHD HDR Latino

    Tren Bala (2022) WEB-DL 4K UHD HDR Latino

    2022
    Tren Bala (2022) WEB-DL 4K UHD HDR Latino

    2h 7m 2022

    Descargar Tren Bala (2022) WEB-DL 4K UHD HDR Latino. El desafortunado asesino "Catarina" está decidido...

    Director: Paul Barry

    Género: 4K HDR

    Actores: Zooey Miyoshi

  • Tren Bala (2022) AMZN WEB-DL 1080p Latino

    Tren Bala (2022) AMZN WEB-DL 1080p Latino

    2022
    Tren Bala (2022) AMZN WEB-DL 1080p Latino

    2h 7m 2022

    Descargar Tren Bala (2022) AMZN WEB-DL 1080p Latino. Cinco asesinos a sueldo se encuentran a bordo de...

    Director: Paul Barry

    Género: Acción

    Actores: Zooey Miyoshi

  • Rick y Morty (2022) Temporada 6 WEB-DL 1080p Latino

    Rick y Morty (2022) Temporada 6 WEB-DL 1080p Latino

    2013
    Rick y Morty (2022) Temporada 6 WEB-DL 1080p Latino

    0h 22m 2013

    Comedia animada que narra las aventuras de un científico loco Rick Sánchez, que regresa después de...

    Director: Justin Roiland

    Género: Action & Adventure

    Actores: Spencer Grammer

  • Poltergeist (1982) REMUX 1080p Latino – CMHDD

    Poltergeist (1982) REMUX 1080p Latino – CMHDD

    1982
    Poltergeist (1982) REMUX 1080p Latino – CMHDD

    1h 54m 1982

    Una familia americana de clase media se traslada a vivir e una nueva casa en un aparentemente idílico...

    Director: Tobe Hooper

    Género: Terror

    Actores: Zelda Rubinstein

descargar Vicious Fun (2020) TNTGO WEB-DL 1080p Latino WEBDL 1080p gratis, Vicious Fun (2020) TNTGO WEB-DL 1080p Latino WEBDL mega 1 link, Vicious Fun (2020) TNTGO WEB-DL 1080p Latino WEBDL pelicula completa, descargar Vicious Fun (2020) TNTGO WEB-DL 1080p Latino WEBDL gratis en mega.

Vicious Fun (2020) TNTGO WEB-DL 1080p Latino pelicula full hd, Vicious Fun (2020) TNTGO WEB-DL 1080p Latino mega latino, Vicious Fun (2020) TNTGO WEB-DL 1080p Latino 4k latino, Vicious Fun (2020) TNTGO WEB-DL 1080p Latino pelicula completa, Vicious Fun (2020) TNTGO WEB-DL 1080p Latino descargar gratis, descargar Vicious Fun (2020) TNTGO WEB-DL 1080p Latino pelicula latino, Vicious Fun (2020) TNTGO WEB-DL 1080p Latino 1 link mega, Vicious Fun (2020) TNTGO WEB-DL 1080p Latino 1 link google drive, Vicious Fun (2020) TNTGO WEB-DL 1080p Latino hd 1080p latino.
Comentarios 0