×

¿Problemas para descargar con Mozilla, EDGE? Deshabilita la opción "Abrir vinculos en una pestaña nueva" tal como lo muestra ésta imagen.

El vicepresidente: más allá del poder (2018) 1080p Castellano

1.672 vistas

Información de El vicepresidente: más allá del poder (2018) 1080p Castellano

el vicio del poder 52141 poster e1554751865417

Datos de la película

  • Calidad: 1080p
  • Audio: Español Castellano AC3 5.1 BLURAY - Ingles AC3 5.1 BLURAY
  • Subtitulos: Español Latino SRT - Ingles SRT
  • Resolución: 1920x804p
  • Formato: MKV
  • Codec: H.264
  • Encoder: CinefiloCool
  • Mediainfo: Clic para Mostrar Datos Ver
  • El Vicepresidente Mas Alla del Poder (2018) 1080p Español.mkv
    Format                      : Matroska
    Format version              : Version 4
    File size                   : 4.07 GiB
    Duration                    : 2 h 12 min
    Overall bit rate            : 4 398 kb/s
    Movie name                  : CinemaniaHDD.Net
    Encoded date                : UTC 2019-05-22 01:37:03
    Writing application         : mkvmerge v30.1.0 ('Forever And More') 64-bit
    Writing library             : libebml v1.3.6 + libmatroska v1.4.9
    Attachments                 : CINEMANIAHD.png

    Video
    ID                          : 1
    Format                      : AVC
    Format/Info                 : Advanced Video Codec
    Format profile              : High@L4.1
    Format settings             : CABAC / 5 Ref Frames
    Format settings, CABAC      : Yes
    Format settings, ReFrames   : 5 frames
    Codec ID                    : V_MPEG4/ISO/AVC
    Duration                    : 2 h 12 min
    Bit rate                    : 3 500 kb/s
    Width                       : 1 920 pixels
    Height                      : 804 pixels
    Display aspect ratio        : 2.40:1
    Frame rate mode             : Constant
    Frame rate                  : 23.976 (24000/1001) FPS
    Color space                 : YUV
    Chroma subsampling          : 4:2:0
    Bit depth                   : 8 bits
    Scan type                   : Progressive
    Bits/(Pixel*Frame)          : 0.095
    Stream size                 : 3.24 GiB (80%)
    Title                       : HD1080p [Bluray]
    Writing library             : x264 core 157 r2935 545de2f
    Encoding settings           : cabac=1 / ref=5 / deblock=1:0:0 / analyse=0x3:0x133 / me=umh / subme=9 / psy=1 / psy_rd=1.00:0.00 / mixed_ref=1 / me_range=16 / chroma_me=1 / trellis=2 / 8x8dct=1 / cqm=0 / deadzone=21,11 / fast_pskip=1 / chroma_qp_offset=-2 / threads=25 / lookahead_threads=2 / sliced_threads=0 / nr=0 / decimate=1 / interlaced=0 / bluray_compat=0 / constrained_intra=0 / bframes=3 / b_pyramid=2 / b_adapt=2 / b_bias=0 / direct=3 / weightb=1 / open_gop=0 / weightp=2 / keyint=240 / keyint_min=24 / scenecut=40 / intra_refresh=0 / rc_lookahead=60 / rc=2pass / mbtree=1 / bitrate=3500 / ratetol=1.0 / qcomp=0.60 / qpmin=0 / qpmax=69 / qpstep=4 / cplxblur=20.0 / qblur=0.5 / vbv_maxrate=62500 / vbv_bufsize=78125 / nal_hrd=none / filler=0 / ip_ratio=1.40 / aq=1:1.00
    Default                     : Yes
    Forced                      : No
    Color range                 : Limited
    Color primaries             : BT.709
    Transfer characteristics    : BT.709
    Matrix coefficients         : BT.709

    Audio #1
    ID                          : 2
    Format                      : AC-3
    Format/Info                 : Audio Coding 3
    Commercial name             : Dolby Digital
    Codec ID                    : A_AC3
    Duration                    : 2 h 12 min
    Bit rate mode               : Constant
    Bit rate                    : 448 kb/s
    Channel(s)                  : 6 channels
    Channel layout              : L R C LFE Ls Rs
    Sampling rate               : 48.0 kHz
    Frame rate                  : 31.250 FPS (1536 SPF)
    Bit depth                   : 16 bits
    Compression mode            : Lossy
    Delay relative to video     : -5 ms
    Stream size                 : 424 MiB (10%)
    Title                       : AC3_5.1_Bluray_Cast
    Language                    : Spanish
    Service kind                : Complete Main
    Default                     : Yes
    Forced                      : Yes

    Audio #2
    ID                          : 3
    Format                      : AC-3
    Format/Info                 : Audio Coding 3
    Commercial name             : Dolby Digital
    Codec ID                    : A_AC3
    Duration                    : 2 h 12 min
    Bit rate mode               : Constant
    Bit rate                    : 448 kb/s
    Channel(s)                  : 6 channels
    Channel layout              : L R C LFE Ls Rs
    Sampling rate               : 48.0 kHz
    Frame rate                  : 31.250 FPS (1536 SPF)
    Bit depth                   : 16 bits
    Compression mode            : Lossy
    Delay relative to video     : -5 ms
    Stream size                 : 424 MiB (10%)
    Title                       : AC3_5.1_Bluray_Eng
    Language                    : English
    Service kind                : Complete Main
    Default                     : No
    Forced                      : No

    Text #1
    ID                          : 4
    Format                      : UTF-8
    Codec ID                    : S_TEXT/UTF8
    Codec ID/Info               : UTF-8 Plain Text
    Duration                    : 2 h 6 min
    Bit rate                    : 88 b/s
    Count of elements           : 1996
    Stream size                 : 81.6 KiB (0%)
    Title                       : Sub_Esp
    Language                    : Spanish
    Default                     : No
    Forced                      : No

    Text #2
    ID                          : 5
    Format                      : UTF-8
    Codec ID                    : S_TEXT/UTF8
    Codec ID/Info               : UTF-8 Plain Text
    Duration                    : 2 h 5 min
    Bit rate                    : 81 b/s
    Count of elements           : 2300
    Stream size                 : 74.6 KiB (0%)
    Title                       : Sub_Eng
    Language                    : English
    Default                     : No
    Forced                      : No

    Menu
    00:00:00.000                : :Chapter 1
    00:03:05.602                : :Chapter 2
    00:07:50.804                : :Chapter 3
    00:13:33.980                : :Chapter 4
    00:19:29.919                : :Chapter 5
    00:26:39.348                : :Chapter 6
    00:33:10.447                : :Chapter 7
    00:37:50.852                : :Chapter 8
    00:42:01.811                : :Chapter 9
    00:51:35.467                : :Chapter 10
    00:56:00.899                : :Chapter 11
    01:00:24.204                : :Chapter 12
    01:06:50.548                : :Chapter 13
    01:10:11.249                : :Chapter 14
    01:13:14.432                : :Chapter 15
    01:17:04.078                : :Chapter 16
    01:23:49.149                : :Chapter 17
    01:26:43.532                : :Chapter 18
    01:34:42.427                : :Chapter 19
    01:39:09.485                : :Chapter 20
    01:44:44.987                : :Chapter 21
    01:49:41.158                : :Chapter 22
    01:59:18.860                : :Chapter 23
    02:02:20.208                : :Chapter 24

  • Peso: 4.07 GiB

Sinopsis

Descargar El vicepresidente: más allá del poder (2018) 1080p Castellano. Biopic sobre el ex vicepresidente de EE.UU. Dick Cheney, que eludió el servicio militar durante la Guerra de Vietnam, pero se convirtió en uno de los máximos propulsores de la invasión de Iraq en 2003 con argumentos que se demostrarían falsos.

Se Actualizará Al Salir El Doblaje Latino

Ficha técnica

Video trailer de la película

Enlaces de descarga

Rip de Bluray

Descargar El vicepresidente: más allá del poder (2018) 1080p Castellano




Aportes de DPeliculasHDmega la pass es:dpeliculashdmega.org Aportes de CinemaniaHD la pass es:cinemaniahdd.com
Guardado en : Castellano , Comedia , Drama , HD 1080p , Historia

Películas relacionadas

descargar El vicepresidente: más allá del poder (2018) 1080p Castellano 1080p 1080p gratis, El vicepresidente: más allá del poder (2018) 1080p Castellano 1080p mega 1 link, El vicepresidente: más allá del poder (2018) 1080p Castellano 1080p pelicula completa, descargar El vicepresidente: más allá del poder (2018) 1080p Castellano 1080p gratis en mega.

El vicepresidente: más allá del poder (2018) 1080p Castellano pelicula full hd, El vicepresidente: más allá del poder (2018) 1080p Castellano mega latino, El vicepresidente: más allá del poder (2018) 1080p Castellano 4k latino, El vicepresidente: más allá del poder (2018) 1080p Castellano pelicula completa, El vicepresidente: más allá del poder (2018) 1080p Castellano descargar gratis, descargar El vicepresidente: más allá del poder (2018) 1080p Castellano pelicula latino, El vicepresidente: más allá del poder (2018) 1080p Castellano 1 link mega, El vicepresidente: más allá del poder (2018) 1080p Castellano 1 link google drive, El vicepresidente: más allá del poder (2018) 1080p Castellano hd 1080p latino.
Comentarios 0