×

¿Problemas para descargar con Mozilla, EDGE? Deshabilita la opción "Abrir vinculos en una pestaña nueva" tal como lo muestra ésta imagen.

Vic the Viking and the Magic Sword (2019) WEB-DL 1080p Latino

301 vistas

Información de Vic the Viking and the Magic Sword (2019) WEB-DL 1080p Latino

Datos de la película

  • Calidad: WEBDL
  • Audio: Español Latino AC3 2.0 WEB-DL - Ingles AC3 5.1 WEB-DL
  • Subtitulos: Español Latino SRT- FORZADOS SRT
  • Resolución: 1916x798
  • Formato: MKV
  • Codec: H.264
  • Encoder: cinemaniahdd
  • Mediainfo: Clic para Mostrar Datos Ver
  • Vicky el Vikingo y La Espada Mágica (2019) WEB-DL 1080p Latino [CNMNHDD].mkv
    Format                      : Matroska
    Format version              : Version 4
    File size                   : 2.94 GiB
    Duration                    : 1 h 21 min
    Overall bit rate            : 5 160 kb/s
    Movie name                  : Vicky el Vikingo y La Espada Mágica (2019) - CinemaniaHDD.Net
    Encoded date                : UTC 2021-04-29 01:10:24
    Writing application         : mkvmerge v56.1.0 ('My Friend') 64-bit
    Writing library             : libebml v1.4.2 + libmatroska v1.6.4
    Cover                       : Yes
    Attachments                 : cover.jpg

    Video
    ID                          : 1
    Format                      : AVC
    Format/Info                 : Advanced Video Codec
    Format profile              : High@L4
    Format settings             : CABAC / 5 Ref Frames
    Format settings, CABAC      : Yes
    Format settings, Reference  : 5 frames
    Codec ID                    : V_MPEG4/ISO/AVC
    Duration                    : 1 h 21 min
    Bit rate                    : 4 518 kb/s
    Width                       : 1 916 pixels
    Height                      : 798 pixels
    Display aspect ratio        : 2.40:1
    Frame rate mode             : Constant
    Frame rate                  : 24.000 FPS
    Color space                 : YUV
    Chroma subsampling          : 4:2:0
    Bit depth                   : 8 bits
    Scan type                   : Progressive
    Bits/(Pixel*Frame)          : 0.123
    Stream size                 : 2.57 GiB (88%)
    Title                       : CinemaniaHDD
    Language                    : English
    Default                     : Yes
    Forced                      : No
    Color range                 : Limited
    Color primaries             : BT.709
    Transfer characteristics    : BT.709
    Matrix coefficients         : BT.709

    Audio #1
    ID                          : 2
    Format                      : AC-3
    Format/Info                 : Audio Coding 3
    Commercial name             : Dolby Digital
    Codec ID                    : A_AC3
    Duration                    : 1 h 21 min
    Bit rate mode               : Constant
    Bit rate                    : 256 kb/s
    Channel(s)                  : 2 channels
    Channel layout              : L R
    Sampling rate               : 48.0 kHz
    Frame rate                  : 31.250 FPS (1536 SPF)
    Compression mode            : Lossy
    Delay relative to video     : -42 ms
    Stream size                 : 149 MiB (5%)
    Title                       : Español latino [CinemaniaHDD]
    Language                    : Spanish
    Service kind                : Complete Main
    Default                     : Yes
    Forced                      : No

    Audio #2
    ID                          : 3
    Format                      : AC-3
    Format/Info                 : Audio Coding 3
    Commercial name             : Dolby Digital
    Codec ID                    : A_AC3
    Duration                    : 1 h 21 min
    Bit rate mode               : Constant
    Bit rate                    : 384 kb/s
    Channel(s)                  : 6 channels
    Channel layout              : L R C LFE Ls Rs
    Sampling rate               : 48.0 kHz
    Frame rate                  : 31.250 FPS (1536 SPF)
    Compression mode            : Lossy
    Delay relative to video     : -42 ms
    Stream size                 : 224 MiB (7%)
    Title                       : Inglés [CinemaniaHDD]
    Language                    : English
    Service kind                : Complete Main
    Default                     : No
    Forced                      : No

    Text #1
    ID                          : 4
    Format                      : UTF-8
    Codec ID                    : S_TEXT/UTF8
    Codec ID/Info               : UTF-8 Plain Text
    Duration                    : 34 min 32 s
    Bit rate                    : 0 b/s
    Count of elements           : 3
    Stream size                 : 82.0 Bytes (0%)
    Title                       : Forzados [CinemaniaHDD]
    Language                    : Spanish
    Default                     : Yes
    Forced                      : Yes

    Text #2
    ID                          : 5
    Format                      : UTF-8
    Codec ID                    : S_TEXT/UTF8
    Codec ID/Info               : UTF-8 Plain Text
    Duration                    : 1 h 20 min
    Bit rate                    : 41 b/s
    Count of elements           : 783
    Stream size                 : 24.8 KiB (0%)
    Title                       : Español latino [CinemaniaHDD]
    Language                    : Spanish
    Default                     : No
    Forced                      : No

    Menu
    00:00:00.000                : 1
    00:20:25.000                : 2
    00:41:18.000                : 3
    00:59:25.000                : 4
    01:13:28.000                : 5
    01:21:28.000                : 1

     

  • Peso: 2.94 GiB

Sinopsis

Vicky, el hijo de Halvar, jefe del pueblo vikingo Flake, es un niño peculiar. No es fuerte, ni grande como todo los vikingos, pero es muy inteligente y sabe encontrar la solución para todo tipo de problemas. Cuando su padre le roba a su gran enemigo la espada mágica de Odín que convierte todo en oro, la codicia se apodera de los vikingos y se desata el caos en la aldea. Vicky, su padre y sus valientes amigos se embarcarán en una nueva aventura para tratar de volver a la normalidad, haciendo frente a olas gigantes, peligrosos villanos, antiguas leyendas y dioses.

Ficha técnica

  • Titulo original: Vic the Viking and the Magic Sword
  • Fecha de lanzamiento: 18-12-2019 (Belgium, France, Germany)
  • Director: Eric Cazes
  • Género: Animación, Aventura

Video trailer de la película

Enlaces de descarga

Rip de Bluray

Descargar Vic the Viking and the Magic Sword (2019) WEB-DL 1080p Latino




Aportes de DPeliculasHDmega la pass es:dpeliculashdmega.org Aportes de CinemaniaHD la pass es:cinemaniahdd.com
Guardado en : Animación , Aventura

Películas relacionadas

descargar Vic the Viking and the Magic Sword (2019) WEB-DL 1080p Latino WEBDL 1080p gratis, Vic the Viking and the Magic Sword (2019) WEB-DL 1080p Latino WEBDL mega 1 link, Vic the Viking and the Magic Sword (2019) WEB-DL 1080p Latino WEBDL pelicula completa, descargar Vic the Viking and the Magic Sword (2019) WEB-DL 1080p Latino WEBDL gratis en mega.

Vic the Viking and the Magic Sword (2019) WEB-DL 1080p Latino pelicula full hd, Vic the Viking and the Magic Sword (2019) WEB-DL 1080p Latino mega latino, Vic the Viking and the Magic Sword (2019) WEB-DL 1080p Latino 4k latino, Vic the Viking and the Magic Sword (2019) WEB-DL 1080p Latino pelicula completa, Vic the Viking and the Magic Sword (2019) WEB-DL 1080p Latino descargar gratis, descargar Vic the Viking and the Magic Sword (2019) WEB-DL 1080p Latino pelicula latino, Vic the Viking and the Magic Sword (2019) WEB-DL 1080p Latino 1 link mega, Vic the Viking and the Magic Sword (2019) WEB-DL 1080p Latino 1 link google drive, Vic the Viking and the Magic Sword (2019) WEB-DL 1080p Latino hd 1080p latino.
Comentarios 0