×

¿Problemas para descargar con Mozilla, EDGE? Deshabilita la opción "Abrir vinculos en una pestaña nueva" tal como lo muestra ésta imagen.

Viaje a Grecia (2020) REMUX 1080p Latino

68 vistas

Información de Viaje a Grecia (2020) REMUX 1080p Latino

Datos de la película

  • Calidad: Full 1080p
  • Audio: Español Latino AC3 2.0 WEB-DL - Ingles DTS 5.1 BLURAY
  • Subtitulos: Español Latino PGS - Ingles PGS
  • Resolución: 1920x1080p
  • Formato: MKV
  • Codec: H.264
  • Encoder: Melkor
  • Mediainfo: Clic para Mostrar Datos Ver
  • Viaje A Grecia (2020) REMUX 1080p Latino.mkv
    Format                      : Matroska
    Format version              : Version 4
    File size                   : 16.2 GiB
    Duration                    : 1 h 43 min
    Overall bit rate mode       : Variable
    Overall bit rate            : 22.4 Mb/s
    Movie name                  : The Trip To Greece (2020) CinemaniaHDD.Net
    Encoded date                : UTC 2022-07-10 00:55:03
    Writing application         : mkvmerge v56.1.0 ('My Friend') 64-bit
    Writing library             : libebml v1.4.2 + libmatroska v1.6.4
    Attachments                 : CINEMANIAHD.png

    Video
    ID                          : 1
    Format                      : AVC
    Format/Info                 : Advanced Video Codec
    Format profile              : High@L4.1
    Format settings             : CABAC / 4 Ref Frames
    Format settings, CABAC      : Yes
    Format settings, Reference  : 4 frames
    Codec ID                    : V_MPEG4/ISO/AVC
    Duration                    : 1 h 43 min
    Bit rate mode               : Variable
    Bit rate                    : 20.0 Mb/s
    Maximum bit rate            : 40.0 Mb/s
    Width                       : 1 920 pixels
    Height                      : 1 080 pixels
    Display aspect ratio        : 16:9
    Frame rate mode             : Constant
    Frame rate                  : 24.000 FPS
    Color space                 : YUV
    Chroma subsampling          : 4:2:0
    Bit depth                   : 8 bits
    Scan type                   : Progressive
    Bits/(Pixel*Frame)          : 0.401
    Stream size                 : 14.4 GiB (89%)
    Title                       : REMUX HD1080p [CinemaniaHDD]
    Language                    : English
    Default                     : Yes
    Forced                      : Yes
    Color range                 : Limited
    Color primaries             : BT.709
    Transfer characteristics    : BT.709
    Matrix coefficients         : BT.709

    Audio #1
    ID                          : 2
    Format                      : AC-3
    Format/Info                 : Audio Coding 3
    Commercial name             : Dolby Digital
    Codec ID                    : A_AC3
    Duration                    : 1 h 43 min
    Bit rate mode               : Constant
    Bit rate                    : 256 kb/s
    Channel(s)                  : 2 channels
    Channel layout              : L R
    Sampling rate               : 48.0 kHz
    Frame rate                  : 31.250 FPS (1536 SPF)
    Compression mode            : Lossy
    Stream size                 : 189 MiB (1%)
    Title                       : Español Latino [CinemaniaHDD]
    Language                    : Spanish
    Service kind                : Complete Main
    Default                     : Yes
    Forced                      : Yes

    Audio #2
    ID                          : 3
    Format                      : DTS XLL
    Format/Info                 : Digital Theater Systems
    Commercial name             : DTS-HD Master Audio
    Codec ID                    : A_DTS
    Duration                    : 1 h 43 min
    Bit rate mode               : Variable
    Bit rate                    : 2 155 kb/s
    Channel(s)                  : 6 channels
    Channel layout              : C L R Ls Rs LFE
    Sampling rate               : 48.0 kHz
    Frame rate                  : 93.750 FPS (512 SPF)
    Bit depth                   : 16 bits
    Compression mode            : Lossless
    Stream size                 : 1.55 GiB (10%)
    Title                       : Ingles [CinemaniaHDD]
    Language                    : English
    Default                     : No
    Forced                      : No

    Text #1
    ID                          : 4
    Format                      : PGS
    Muxing mode                 : zlib
    Codec ID                    : S_HDMV/PGS
    Codec ID/Info               : Picture based subtitle format used on BDs/HD-DVDs
    Duration                    : 1 h 39 min
    Bit rate                    : 68.3 kb/s
    Count of elements           : 3940
    Stream size                 : 48.5 MiB (0%)
    Title                       : Español-PGS [CinemaniaHDD]
    Language                    : Spanish
    Default                     : No
    Forced                      : No

    Text #2
    ID                          : 5
    Format                      : PGS
    Muxing mode                 : zlib
    Codec ID                    : S_HDMV/PGS
    Codec ID/Info               : Picture based subtitle format used on BDs/HD-DVDs
    Duration                    : 1 h 39 min
    Bit rate                    : 73.1 kb/s
    Count of elements           : 4390
    Stream size                 : 52.2 MiB (0%)
    Title                       : Ingles-PGS [CinemaniaHDD]
    Language                    : English
    Default                     : No
    Forced                      : No

    Text #3
    ID                          : 6
    Format                      : UTF-8
    Codec ID                    : S_TEXT/UTF8
    Codec ID/Info               : UTF-8 Plain Text
    Duration                    : 1 s 42 ms
    Bit rate                    : 76 b/s
    Count of elements           : 1
    Stream size                 : 10.0 Bytes (0%)
    Title                       : Forzados-SRT [CinemaniaHDD]
    Language                    : Spanish
    Default                     : Yes
    Forced                      : Yes

    Text #4
    ID                          : 7
    Format                      : UTF-8
    Codec ID                    : S_TEXT/UTF8
    Codec ID/Info               : UTF-8 Plain Text
    Duration                    : 1 h 39 min
    Bit rate                    : 83 b/s
    Count of elements           : 1837
    Stream size                 : 60.9 KiB (0%)
    Title                       : Español-SRT [CinemaniaHDD]
    Language                    : Spanish
    Default                     : No
    Forced                      : No

    Menu
    00:00:00.000                : :Chapter 01
    00:10:44.917                : :Chapter 02
    00:16:42.292                : :Chapter 03
    00:19:47.125                : :Chapter 04
    00:29:11.375                : :Chapter 05
    00:34:21.208                : :Chapter 06
    00:44:12.000                : :Chapter 07
    00:55:40.417                : :Chapter 08
    01:12:49.625                : :Chapter 09
    01:19:05.542                : :Chapter 10
    01:35:24.042                : :Chapter 11
    01:39:57.000                : :Chapter 12

  • Peso: 16.2 GiB

Sinopsis

Descargar Viaje a Grecia (2020) REMUX 1080p Latino. Los actores Steve Coogan y Rob Brydon viajan de Troya a Ítaca siguiendo los pasos de Ulises en la Odisea. Cuando Ulises dejó Troya, le llevó diez años volver a su hogar. Steve y Rob solo tienen seis días en su propia odisea personal. En el camino, discuten sobre tragedia y comedia, astronomía y biología, mitos, historia, democracia y el significado de la vida.

Ficha técnica

Video trailer de la película

Enlaces de descarga

Rip de Bluray

Descargar Viaje a Grecia (2020) REMUX 1080p Latino




Aportes de DPeliculasHDmega la pass es:dpeliculashdmega.org Aportes de CinemaniaHD la pass es:cinemaniahdd.com
Guardado en : Comedia , Drama , Remux

Películas relacionadas

descargar Viaje a Grecia (2020) REMUX 1080p Latino Full 1080p 1080p gratis, Viaje a Grecia (2020) REMUX 1080p Latino Full 1080p mega 1 link, Viaje a Grecia (2020) REMUX 1080p Latino Full 1080p pelicula completa, descargar Viaje a Grecia (2020) REMUX 1080p Latino Full 1080p gratis en mega.

Viaje a Grecia (2020) REMUX 1080p Latino pelicula full hd, Viaje a Grecia (2020) REMUX 1080p Latino mega latino, Viaje a Grecia (2020) REMUX 1080p Latino 4k latino, Viaje a Grecia (2020) REMUX 1080p Latino pelicula completa, Viaje a Grecia (2020) REMUX 1080p Latino descargar gratis, descargar Viaje a Grecia (2020) REMUX 1080p Latino pelicula latino, Viaje a Grecia (2020) REMUX 1080p Latino 1 link mega, Viaje a Grecia (2020) REMUX 1080p Latino 1 link google drive, Viaje a Grecia (2020) REMUX 1080p Latino hd 1080p latino.
Comentarios 0