Vertical Limit (2000) REMUX 1080p Latino – CMHDD

113 vistas
1 estrella2 estrellas3 estrellas4 estrellas5 estrellas (Ninguna valoración todavía)
Cargando...

Información de Vertical Limit (2000) REMUX 1080p Latino – CMHDD

Datos de la película

  • Calidad: Full 1080p
  • Audio: Español Latino AC3 5.1 BLURAY - Ingles DTS 5.1 BLURAY
  • Subtitulos: Español Latino SRT
  • Resolución: 1920x1080p
  • Formato: MKV
  • Codec: H.264
  • Encoder: Dracarys
  • Mediainfo: Clic para Mostrar Datos Ver
  • Format                      : Matroska
    Format version              : Version 4
    File size                   : 30.3 GiB
    Duration                    : 2 h 4 min
    Overall bit rate mode       : Variable
    Overall bit rate            : 34.8 Mb/s
    Movie name                  : Vertical Limit (2000) REMUX 1080p Latino - CMHDD
    Encoded date                : UTC 2021-03-27 00:57:42
    Writing application         : mkvmerge v51.0.0 ('I Wish') 64-bit
    Writing library             : libebml v1.4.0 + libmatroska v1.6.2

    Video
    ID                          : 1
    ID in the original source m : 4113 (0x1011)
    Format                      : AVC
    Format/Info                 : Advanced Video Codec
    Format profile              : High@L4.1
    Format settings             : CABAC / 2 Ref Frames
    Format settings, CABAC      : Yes
    Format settings, Reference  : 2 frames
    Codec ID                    : V_MPEG4/ISO/AVC
    Duration                    : 2 h 4 min
    Bit rate mode               : Variable
    Bit rate                    : 29.1 Mb/s
    Width                       : 1 920 pixels
    Height                      : 1 080 pixels
    Display aspect ratio        : 16:9
    Frame rate mode             : Constant
    Frame rate                  : 23.976 (24000/1001) FPS
    Color space                 : YUV
    Chroma subsampling          : 4:2:0
    Bit depth                   : 8 bits
    Scan type                   : Progressive
    Bits/(Pixel*Frame)          : 0.586
    Stream size                 : 25.3 GiB (84%)
    Default                     : Yes
    Forced                      : No
    Original source medium      : Blu-ray

    Audio #1
    ID                          : 2
    Format                      : AC-3
    Format/Info                 : Audio Coding 3
    Commercial name             : Dolby Digital
    Codec ID                    : A_AC3
    Duration                    : 2 h 4 min
    Bit rate mode               : Constant
    Bit rate                    : 448 kb/s
    Channel(s)                  : 6 channels
    Channel layout              : L R C LFE Ls Rs
    Sampling rate               : 48.0 kHz
    Frame rate                  : 31.250 FPS (1536 SPF)
    Compression mode            : Lossy
    Stream size                 : 399 MiB (1%)
    Language                    : Spanish
    Service kind                : Complete Main
    Default                     : Yes
    Forced                      : No

    Audio #2
    ID                          : 3
    ID in the original source m : 4352 (0x1100)
    Format                      : AC-3
    Format/Info                 : Audio Coding 3
    Commercial name             : Dolby Digital
    Codec ID                    : A_AC3
    Duration                    : 2 h 4 min
    Bit rate mode               : Constant
    Bit rate                    : 640 kb/s
    Channel(s)                  : 6 channels
    Channel layout              : L R C LFE Ls Rs
    Sampling rate               : 48.0 kHz
    Frame rate                  : 31.250 FPS (1536 SPF)
    Compression mode            : Lossy
    Stream size                 : 570 MiB (2%)
    Language                    : English
    Service kind                : Complete Main
    Default                     : No
    Forced                      : No
    Original source medium      : Blu-ray

    Audio #3
    ID                          : 4
    ID in the original source m : 4353 (0x1101)
    Format                      : PCM
    Format settings             : Little / Signed
    Codec ID                    : A_PCM/INT/LIT
    Duration                    : 2 h 4 min
    Bit rate mode               : Constant
    Bit rate                    : 4 608 kb/s
    Channel(s)                  : 6 channels
    Sampling rate               : 48.0 kHz
    Frame rate                  : 200.000 FPS (240 SPF)
    Bit depth                   : 16 bits
    Stream size                 : 4.01 GiB (13%)
    Language                    : English
    Default                     : No
    Forced                      : No
    Original source medium      : Blu-ray

    Text
    ID                          : 5
    Format                      : UTF-8
    Codec ID                    : S_TEXT/UTF8
    Codec ID/Info               : UTF-8 Plain Text
    Duration                    : 1 h 55 min
    Bit rate                    : 33 b/s
    Count of elements           : 826
    Stream size                 : 28.4 KiB (0%)
    Language                    : Spanish
    Default                     : No
    Forced                      : No

    Menu
    00:00:00.000                : en:Chapter 01
    00:13:25.805                : en:Chapter 02
    00:16:53.637                : en:Chapter 03
    00:20:49.373                : en:Chapter 04
    00:30:36.876                : en:Chapter 05
    00:37:02.762                : en:Chapter 06
    00:45:55.085                : en:Chapter 07
    00:53:45.138                : en:Chapter 08
    00:59:49.419                : en:Chapter 09
    01:11:23.696                : en:Chapter 10
    01:14:17.911                : en:Chapter 11
    01:24:30.231                : en:Chapter 12
    01:33:14.338                : en:Chapter 13
    01:37:07.071                : en:Chapter 14
    01:43:11.643                : en:Chapter 15
    01:52:46.342                : en:Chapter 16

  • Peso: 30.3 GiB

Sinopsis

Peter Garret es un joven fotógrafo deportivo que vive atormentado por el recuerdo de su padre, que sacrificó su vida durante una escalada para salvarlo a él y a su hermana Annie. Con los años, Annie se ha convertido en una experta escaladora que forma parte de un equipo de ascensión al K-2. Sin embargo, cuando un error en la previsión meteorológica provoca un grave accidente en el que se ve implicada, Peter decide arriesgar su vida junto a otros voluntarios para rescatarla.

Ficha técnica

Video trailer de la película

Enlaces de descarga

Rip de Bluray

Descargar Vertical Limit (2000) REMUX 1080p Latino – CMHDD


Aportes de DPeliculasHDmega la pass es:dpeliculashdmega.org Aportes de CinemaniaHD la pass es:cinemaniahdd.com
Guardado en : Acción , Aventura , Drama , Suspenso

Películas relacionadas

  • En liberté! (2018) WEB-DL 1080p Latino

    En liberté! (2018) WEB-DL 1080p Latino

    2018
    En liberté! (2018) WEB-DL 1080p Latino

    5.0 1h 48m 2018

    El detective Yvonne es la viuda del jefe de policía Santi, un héroe local en un pueblo de la Riviera...

    Director: Pierre Salvadori

    Género: Comedia

    Actores: Vincent Elbaz

  • The Hatred (2017) WEB-DL 1080p Latino

    The Hatred (2017) WEB-DL 1080p Latino

    2017
    The Hatred (2017) WEB-DL 1080p Latino

    5.0 1h 34m 2017

    Cuatro mujeres jóvenes viajan a la nueva casa de campo de su profesor universitario para una escapada...

    Director: Michael G. Kehoe

    Género: Suspenso

    Actores: Tim DeZarn

  • S.W.A.T (2019) WEB-DL 1080p Latino

    S.W.A.T (2019) WEB-DL 1080p Latino

    2019
    S.W.A.T (2019) WEB-DL 1080p Latino

    5.0 0h 0m 2019

    Una Unidad de Fuerzas Especiales ha organizado una serie de ejercicios de combate para seleccionar a...

    Director: Ding Sheng

    Género: Acción

    Actores: Zhao Xiaorui

  • Servants of War (2019) WEB-DL 1080p Latino

    Servants of War (2019) WEB-DL 1080p Latino

    2019
    Servants of War (2019) WEB-DL 1080p Latino

    5.0 1h 38m 2019

    El conocido profesor Professor Jerzy Abramski es asesinado. De su investigación se encarga el inspector...

    Director: Mariusz Gawryś

    Género: Crimen

    Actores: Zbigniew Stryj

  • Submission (2019) WEB-DL 1080p Latino

    Submission (2019) WEB-DL 1080p Latino

    2019
    Submission (2019) WEB-DL 1080p Latino

    5.0 1h 34m 2019

    Después de que dos marines regresan a casa después de un interrogatorio de ISIS, uno lucha por sobrevivir...

    Director: J.M. Berrios

    Género: Drama

    Actores: Scott Pryor

Vertical Limit (2000) REMUX 1080p Latino – CMHDD pelicula full hd, Vertical Limit (2000) REMUX 1080p Latino – CMHDD mega latino, Vertical Limit (2000) REMUX 1080p Latino – CMHDD 4k latino, Vertical Limit (2000) REMUX 1080p Latino – CMHDD pelicula completa, Vertical Limit (2000) REMUX 1080p Latino – CMHDD descargar gratis, descargar Vertical Limit (2000) REMUX 1080p Latino – CMHDD pelicula latino, Vertical Limit (2000) REMUX 1080p Latino – CMHDD 1 link mega, Vertical Limit (2000) REMUX 1080p Latino – CMHDD 1 link google drive, Vertical Limit (2000) REMUX 1080p Latino – CMHDD hd 1080p latino.
Comentarios 2