×

¿Problemas para descargar con Mozilla, EDGE? Deshabilita la opción "Abrir vinculos en una pestaña nueva" tal como lo muestra ésta imagen.

Vertical Limit (2000) Full HD 1080p Latino – CMHDD

331 vistas

Información de Vertical Limit (2000) Full HD 1080p Latino – CMHDD

Datos de la película

  • Calidad: Full 1080p
  • Audio: Español Castellano AC3 5.1 BLURAY - Ingles AC3 5.1 BLURAY
  • Subtitulos: Español Latino SRT
  • Resolución: 1920x1080p
  • Formato: MKV
  • Codec: H.264
  • Encoder: Dracarys
  • Mediainfo: Clic para Mostrar Datos Ver
  • Format                      : Matroska
    Format version              : Version 4
    File size                   : 10.3 GiB
    Duration                    : 2 h 4 min
    Overall bit rate            : 11.8 Mb/s
    Movie name                  : Vertical Limit (2000) Full HD 1080p Latino - CMHDD
    Encoded date                : UTC 2021-04-05 01:13:43
    Writing application         : mkvmerge v51.0.0 ('I Wish') 64-bit
    Writing library             : libebml v1.4.0 + libmatroska v1.6.2

    Video
    ID                          : 1
    Format                      : AVC
    Format/Info                 : Advanced Video Codec
    Format profile              : High@L4.1
    Format settings             : CABAC / 4 Ref Frames
    Format settings, CABAC      : Yes
    Format settings, Reference  : 4 frames
    Codec ID                    : V_MPEG4/ISO/AVC
    Duration                    : 2 h 4 min
    Bit rate                    : 10.7 Mb/s
    Width                       : 1 920 pixels
    Height                      : 1 080 pixels
    Display aspect ratio        : 16:9
    Frame rate mode             : Constant
    Frame rate                  : 23.976 (24000/1001) FPS
    Color space                 : YUV
    Chroma subsampling          : 4:2:0
    Bit depth                   : 8 bits
    Scan type                   : Progressive
    Bits/(Pixel*Frame)          : 0.216
    Stream size                 : 9.34 GiB (91%)
    Writing library             : x264 core 157 r2935 545de2f
    Encoding settings           : cabac=1 / ref=4 / deblock=1:0:0 / analyse=0x3:0x133 / me=tesa / subme=11 / psy=1 / psy_rd=1.00:0.00 / mixed_ref=1 / me_range=24 / chroma_me=1 / trellis=2 / 8x8dct=1 / cqm=0 / deadzone=21,11 / fast_pskip=0 / chroma_qp_offset=-2 / threads=24 / lookahead_threads=6 / sliced_threads=0 / nr=0 / decimate=1 / interlaced=0 / bluray_compat=0 / constrained_intra=0 / bframes=16 / b_pyramid=2 / b_adapt=2 / b_bias=0 / direct=3 / weightb=1 / open_gop=0 / weightp=2 / keyint=240 / keyint_min=24 / scenecut=40 / intra_refresh=0 / rc_lookahead=60 / rc=crf / mbtree=1 / crf=20.0 / qcomp=0.60 / qpmin=0 / qpmax=69 / qpstep=4 / vbv_maxrate=62500 / vbv_bufsize=78125 / crf_max=0.0 / nal_hrd=none / filler=0 / ip_ratio=1.40 / aq=1:1.00
    Default                     : Yes
    Forced                      : No
    Color range                 : Limited
    Color primaries             : BT.709
    Transfer characteristics    : BT.709
    Matrix coefficients         : BT.709

    Audio #1
    ID                          : 2
    Format                      : AC-3
    Format/Info                 : Audio Coding 3
    Commercial name             : Dolby Digital
    Codec ID                    : A_AC3
    Duration                    : 2 h 4 min
    Bit rate mode               : Constant
    Bit rate                    : 448 kb/s
    Channel(s)                  : 6 channels
    Channel layout              : L R C LFE Ls Rs
    Sampling rate               : 48.0 kHz
    Frame rate                  : 31.250 FPS (1536 SPF)
    Compression mode            : Lossy
    Stream size                 : 399 MiB (4%)
    Language                    : Spanish
    Service kind                : Complete Main
    Default                     : Yes
    Forced                      : No

    Audio #2
    ID                          : 3
    Format                      : AC-3
    Format/Info                 : Audio Coding 3
    Commercial name             : Dolby Digital
    Codec ID                    : A_AC3
    Duration                    : 2 h 4 min
    Bit rate mode               : Constant
    Bit rate                    : 640 kb/s
    Channel(s)                  : 6 channels
    Channel layout              : L R C LFE Ls Rs
    Sampling rate               : 48.0 kHz
    Frame rate                  : 31.250 FPS (1536 SPF)
    Compression mode            : Lossy
    Stream size                 : 570 MiB (5%)
    Language                    : English
    Service kind                : Complete Main
    Default                     : No
    Forced                      : No

    Text
    ID                          : 4
    Format                      : UTF-8
    Codec ID                    : S_TEXT/UTF8
    Codec ID/Info               : UTF-8 Plain Text
    Duration                    : 1 h 55 min
    Bit rate                    : 33 b/s
    Count of elements           : 826
    Stream size                 : 28.4 KiB (0%)
    Default                     : No
    Forced                      : No

    Menu
    00:00:00.000                : :Chapter 1
    00:13:25.847                : :Chapter 2
    00:16:53.679                : :Chapter 3
    00:20:49.415                : :Chapter 4
    00:30:36.918                : :Chapter 5
    00:37:02.804                : :Chapter 6
    00:45:55.127                : :Chapter 7
    00:53:45.180                : :Chapter 8
    00:59:49.503                : :Chapter 9
    01:11:23.780                : :Chapter 10
    01:14:17.912                : :Chapter 11
    01:24:30.232                : :Chapter 12
    01:33:14.339                : :Chapter 13
    01:37:07.113                : :Chapter 14
    01:43:11.644                : :Chapter 15
    01:52:46.343                : :Chapter 16

  • Peso: 10.3 GiB

Sinopsis

Peter Garret es un joven fotógrafo deportivo que vive atormentado por el recuerdo de su padre, que sacrificó su vida durante una escalada para salvarlo a él y a su hermana Annie. Con los años, Annie se ha convertido en una experta escaladora que forma parte de un equipo de ascensión al K-2. Sin embargo, cuando un error en la previsión meteorológica provoca un grave accidente en el que se ve implicada, Peter decide arriesgar su vida junto a otros voluntarios para rescatarla.

Ficha técnica

Video trailer de la película

Enlaces de descarga

Rip de Bluray

Descargar Vertical Limit (2000) Full HD 1080p Latino – CMHDD




Aportes de DPeliculasHDmega la pass es:dpeliculashdmega.org Aportes de CinemaniaHD la pass es:cinemaniahdd.com
Guardado en : Acción , Aventura , Drama , Suspenso

Películas relacionadas

  • El Ultimo Juego (2021) WEB-DL 1080p Latino

    El Ultimo Juego (2021) WEB-DL 1080p Latino

    2021
    El Ultimo Juego (2021) WEB-DL 1080p Latino

    1h 21m 2021

    Descargar El Ultimo Juego (2021) WEB-DL 1080p Latino. 6 extraños se despiertan dentro de una habitación...

    Director: John David Moffat IV

    Género: Drama

    Actores: Yasmin Irvine

  • DC Liga De Supermascotas (2022) HD 1080p Latino

    DC Liga De Supermascotas (2022) HD 1080p Latino

    2022
    DC Liga De Supermascotas (2022) HD 1080p Latino

    1h 45m 2022

    Descargar DC Liga De Supermascotas (2022) HD 1080p Latino. Krypto el Superperro y Superman son amigos...

    Director: Sam Levine

    Género: Acción

    Actores: Yvette Nicole Brown

  • Invitacion Al Infierno (2022) MA WEB-DL 1080p Latino

    Invitacion Al Infierno (2022) MA WEB-DL 1080p Latino

    2022
    Invitacion Al Infierno (2022) MA WEB-DL 1080p Latino

    1h 45m 2022

    Descargar Invitacion Al Infierno (2022) MA WEB-DL 1080p Latino. Tras la muerte de su madre y quedarse...

    Director: Jessica M. Thompson

    Género: Suspenso

    Actores: Virág Bárány

descargar Vertical Limit (2000) Full HD 1080p Latino – CMHDD Full 1080p 1080p gratis, Vertical Limit (2000) Full HD 1080p Latino – CMHDD Full 1080p mega 1 link, Vertical Limit (2000) Full HD 1080p Latino – CMHDD Full 1080p pelicula completa, descargar Vertical Limit (2000) Full HD 1080p Latino – CMHDD Full 1080p gratis en mega.

Vertical Limit (2000) Full HD 1080p Latino – CMHDD pelicula full hd, Vertical Limit (2000) Full HD 1080p Latino – CMHDD mega latino, Vertical Limit (2000) Full HD 1080p Latino – CMHDD 4k latino, Vertical Limit (2000) Full HD 1080p Latino – CMHDD pelicula completa, Vertical Limit (2000) Full HD 1080p Latino – CMHDD descargar gratis, descargar Vertical Limit (2000) Full HD 1080p Latino – CMHDD pelicula latino, Vertical Limit (2000) Full HD 1080p Latino – CMHDD 1 link mega, Vertical Limit (2000) Full HD 1080p Latino – CMHDD 1 link google drive, Vertical Limit (2000) Full HD 1080p Latino – CMHDD hd 1080p latino.
Comentarios 1
  • ocpgaiden - 06 abril, 2021

    Gracias por esta excelente pelicula, saludos