Verdad o reto (2018) Full 1080p Latino

2.030 vistas
1 estrella2 estrellas3 estrellas4 estrellas5 estrellas (5 votos, promedio: 3,40 de 5)
Cargando…

Información de Verdad o reto (2018) Full 1080p Latino

Datos de la película

  • Calidad: Full 1080p
  • Audio: Español Latino DTS 5.1 BLURAY - Ingles DTS 5.1 BLURAY
  • Subtitulos: Español Latino PGS - Ingles PGS
  • Resolución: 1920x1080p
  • Formato: MKV
  • Codec: H.264
  • Encoder: Dracarys
  • Mediainfo: Clic para Mostrar Datos Ver
  • Format                                   : Matroska
    Format version                           : Version 4 / Version 2
    File size                                : 3.82 GiB
    Duration                                 : 1 h 40 min
    Overall bit rate                         : 5 441 kb/s
    Movie name                               : CinemaniaHDD.net
    Encoded date                             : UTC 2018-07-14 05:15:32 / UTC 2018-07-13T09:00:01Z
    Writing application                      : mkvmerge v15.0.0 ('Duel with the Devil') 64-bit
    Writing library                          : libebml v1.3.5 + libmatroska v1.4.5 / Lavf57.7.2

    Video
    ID                                       : 1
    Format                                   : AVC
    Format/Info                              : Advanced Video Codec
    Format profile                           : [email protected]
    Format settings                          : CABAC / 4 Ref Frames
    Format settings, CABAC                   : Yes
    Format settings, RefFrames               : 4 frames
    Codec ID                                 : V_MPEG4/ISO/AVC
    Duration                                 : 1 h 40 min
    Bit rate                                 : 3 056 kb/s
    Width                                    : 1 920 pixels
    Height                                   : 1 080 pixels
    Display aspect ratio                     : 16:9
    Frame rate mode                          : Constant
    Frame rate                               : 23.976 (24000/1001) FPS
    Color space                              : YUV
    Chroma subsampling                       : 4:2:0
    Bit depth                                : 8 bits
    Scan type                                : Progressive
    Bits/(Pixel*Frame)                       : 0.061
    Stream size                              : 2.15 GiB (56%)
    Title                                    : Verdad o reto (2018) Full 1080p Latino
    Writing library                          : x264 core 148 r2708 86b7198
    Encoding settings                        : cabac=1 / ref=4 / deblock=1:0:0 / analyse=0x3:0x133 / me=esa / subme=10 / psy=1 / psy_rd=1.00:0.00 / mixed_ref=1 / me_range=24 / chroma_me=1 / trellis=2 / 8x8dct=1 / cqm=0 / deadzone=21,11 / fast_pskip=1 / chroma_qp_offset=-2 / threads=34 / lookahead_threads=5 / sliced_threads=0 / nr=0 / decimate=1 / interlaced=0 / bluray_compat=0 / constrained_intra=0 / bframes=8 / b_pyramid=2 / b_adapt=2 / b_bias=0 / direct=3 / weightb=1 / open_gop=0 / weightp=2 / keyint=240 / keyint_min=24 / scenecut=40 / intra_refresh=0 / rc_lookahead=60 / rc=crf / mbtree=1 / crf=20.0 / qcomp=0.60 / qpmin=0 / qpmax=69 / qpstep=4 / vbv_maxrate=62500 / vbv_bufsize=78125 / crf_max=0.0 / nal_hrd=none / filler=0 / ip_ratio=1.40 / aq=1:1.00
    Language                                 : English
    Default                                  : Yes
    Forced                                   : No
    Color range                              : Limited
    Color primaries                          : BT.709
    Transfer characteristics                 : BT.709
    Matrix coefficients                      : BT.709
    Statistics Tags Issue                    : mkvmerge v15.0.0 ('Duel with the Devil') 64-bit 2018-07-14 05:15:32 / mkvmerge v15.0.0 ('Duel with the Devil') 64-bit 2018-07-14 05:15:32 / UTC 2018-07-13T09:00:01Z
    FromStats_BitRate                        : 3135142
    FromStats_Duration                       : 01:40:32.610000000
    FromStats_FrameCount                     : 144638
    FromStats_StreamSize                     : 2364136447

    Audio #1
    ID                                       : 2
    Format                                   : DTS
    Format/Info                              : Digital Theater Systems
    Mode                                     : 16
    Format settings, Endianness              : Big
    Codec ID                                 : A_DTS
    Duration                                 : 1 h 40 min
    Bit rate mode                            : Constant
    Bit rate                                 : 768 kb/s
    Channel(s)                               : 6 channels
    Channel positions                        : Front: L C R, Side: L R, LFE
    Sampling rate                            : 48.0 kHz
    Frame rate                               : 93.750 FPS (512 SPF)
    Bit depth                                : 24 bits
    Compression mode                         : Lossy
    Stream size                              : 552 MiB (14%)
    Language                                 : Spanish
    Default                                  : Yes
    Forced                                   : No
    Statistics Tags Issue                    : mkvmerge v15.0.0 ('Duel with the Devil') 64-bit 2018-07-14 05:15:32 / mkvmerge v15.0.0 ('Duel with the Devil') 64-bit 2018-07-14 05:15:32 / UTC 2018-07-13T09:00:01Z
    FromStats_BitRate                        : 767999
    FromStats_Duration                       : 01:40:32.651000000
    FromStats_FrameCount                     : 565561
    FromStats_StreamSize                     : 579134464

    Audio #2
    ID                                       : 3
    Format                                   : DTS
    Format/Info                              : Digital Theater Systems
    Mode                                     : 16
    Format settings, Endianness              : Big
    Codec ID                                 : A_DTS
    Duration                                 : 1 h 40 min
    Bit rate mode                            : Constant
    Bit rate                                 : 1 509 kb/s
    Channel(s)                               : 6 channels
    Channel positions                        : Front: L C R, Side: L R, LFE
    Sampling rate                            : 48.0 kHz
    Frame rate                               : 93.750 FPS (512 SPF)
    Bit depth                                : 24 bits
    Compression mode                         : Lossy
    Stream size                              : 1.06 GiB (28%)
    Language                                 : English
    Default                                  : No
    Forced                                   : No
    Statistics Tags Issue                    : mkvmerge v15.0.0 ('Duel with the Devil') 64-bit 2018-07-14 05:15:32 / mkvmerge v15.0.0 ('Duel with the Devil') 64-bit 2018-07-14 05:15:32 / UTC 2018-07-13T09:00:01Z
    FromStats_BitRate                        : 1508999
    FromStats_Duration                       : 01:40:32.651000000
    FromStats_FrameCount                     : 565561
    FromStats_StreamSize                     : 1137908732

    Text #1
    ID                                       : 4
    Format                                   : PGS
    Muxing mode                              : zlib
    Codec ID                                 : S_HDMV/PGS
    Codec ID/Info                            : Picture based subtitle format used on BDs/HD-DVDs
    Language                                 : English
    Default                                  : No
    Forced                                   : No
    Statistics Tags Issue                    : mkvmerge v15.0.0 ('Duel with the Devil') 64-bit 2018-07-14 05:15:32 / mkvmerge v15.0.0 ('Duel with the Devil') 64-bit 2018-07-14 05:15:32 / UTC 2018-07-13T09:00:01Z
    FromStats_BitRate                        : 47734
    FromStats_Duration                       : 01:39:44.487000000
    FromStats_FrameCount                     : 3454
    FromStats_StreamSize                     : 35707978

    Text #2
    ID                                       : 5
    Format                                   : PGS
    Muxing mode                              : zlib
    Codec ID                                 : S_HDMV/PGS
    Codec ID/Info                            : Picture based subtitle format used on BDs/HD-DVDs
    Language                                 : Spanish
    Default                                  : No
    Forced                                   : No
    Statistics Tags Issue                    : mkvmerge v15.0.0 ('Duel with the Devil') 64-bit 2018-07-14 05:15:32 / mkvmerge v15.0.0 ('Duel with the Devil') 64-bit 2018-07-14 05:15:32 / UTC 2018-07-13T09:00:01Z
    FromStats_BitRate                        : 34127
    FromStats_Duration                       : 01:39:05.073000000
    FromStats_FrameCount                     : 3066
    FromStats_StreamSize                     : 25361392

    Text #3
    ID                                       : 6
    Format                                   : PGS
    Muxing mode                              : zlib
    Codec ID                                 : S_HDMV/PGS
    Codec ID/Info                            : Picture based subtitle format used on BDs/HD-DVDs
    Title                                    : Forzados
    Language                                 : Spanish
    Default                                  : Yes
    Forced                                   : Yes
    Statistics Tags Issue                    : mkvmerge v15.0.0 ('Duel with the Devil') 64-bit 2018-07-14 05:15:32 / mkvmerge v15.0.0 ('Duel with the Devil') 64-bit 2018-07-14 05:15:32 / UTC 2018-07-13T09:00:01Z
    FromStats_BitRate                        : 364
    FromStats_Duration                       : 01:35:01.234000000
    FromStats_FrameCount                     : 66
    FromStats_StreamSize                     : 259471

    Menu
    00:00:00.000                             : :Chapter 1
    00:02:29.232                             : :Chapter 2
    00:10:48.106                             : :Chapter 3
    00:14:14.437                             : :Chapter 4
    00:20:26.517                             : :Chapter 5
    00:25:15.347                             : :Chapter 6
    00:29:19.758                             : :Chapter 7
    00:34:52.882                             : :Chapter 8
    00:41:21.187                             : :Chapter 9
    00:45:28.017                             : :Chapter 10
    00:48:32.618                             : :Chapter 11
    00:54:41.779                             : :Chapter 12
    00:58:25.502                             : :Chapter 13
    01:05:52.782                             : :Chapter 14
    01:10:03.241                             : :Chapter 15
    01:15:46.083                             : :Chapter 16
    01:21:58.372                             : :Chapter 17
    01:28:25.342                             : :Chapter 18
    01:31:45.542                             : :Chapter 19
    01:37:55.661                             : :Chapter 20

  • Peso: 3.82 GiB

Sinopsis

Un grupo de amigos comienza a jugar a “Verdad o atrevimiento”, pero rápidamente descubren que algo que empezó de forma inocente se ha vuelto peligroso. Si no siguen las normas o se niegan a jugar, serán poseídos por un demonio que les obligará a matar, a sí mismos o a los demás.

Ficha técnica

Video trailer de la película

Enlaces de descarga

Rip de Bluray

Descargar Verdad o reto (2018) Full 1080p Latino




Aportes de DPeliculasHDmega la pass es:dpeliculashdmega.org Aportes de CinemaniaHD la pass es:cinemaniahdd.com

Películas relacionadas

  • The Final Wish (2018) Full 1080p Subtitulado

    2019
    The Final Wish (2018) Full 1080p Subtitulado

    0.0 1h 35m 2019

    Descargar The Final Wish (2018) Full 1080p Subtitulado. Aaron (Michael Welch) es un abogado con problemas...

    Director: Timothy Woodward Jr.

    Género: FULL 1080p Plateadas

    Actores: Tony Todd

  • La nave del terror (1997) Full 1080p Latino

    1997
    La nave del terror (1997) Full 1080p Latino

    0.0 1h 36m 1997

    En el año 2047 una nave de rescate, la "Lewis & Clark", es enviada a investigar la misteriosa reaparición...

    Director: Paul W.S. Anderson

    Género: Ciencia ficción

    Actores: Teresa May

  • Man On A Ledge (2012) Full (Open Matte) 1080P Latino

    2012
    Man On A Ledge (2012) Full (Open Matte) 1080P Latino

    0.0 1h 42m 2012

    Nick Cassidy (Sam Worthington), un antiguo agente de policía, se escapa de la cárcel y se dirige al...

    Director: Melissa Kalbfus

    Género: Acción

    Actores: William Sadler

Comentarios 0