Venom: Carnage Liberado (2021) PLACEBO Full HD 1080p Latino

933 vistas

Información de Venom: Carnage Liberado (2021) PLACEBO Full HD 1080p Latino

Datos de la película

  • Calidad: Full 1080p
  • Audio: Se especifica abajo de la Sinopsis
  • Subtitulos: Español Latino PGS - Ingles PGS
  • Resolución: 1920x1080p
  • Formato: MKV
  • Codec: H.264
  • Encoder: Melkor
  • Mediainfo: Clic para Mostrar Datos Ver
  • Venom Carnage Liberado (2021) PLACEBO 1080p Latino.mkv
    Format                      : Matroska
    Format version              : Version 4
    File size                   : 5.36 GiB
    Duration                    : 1 h 37 min
    Overall bit rate            : 7 863 kb/s
    Movie name                  : Venom Let There Be Carnage (2021) CinemaniaHDD.Net
    Encoded date                : UTC 2021-12-08 02:09:10
    Writing application         : mkvmerge v56.1.0 ('My Friend') 64-bit
    Writing library             : libebml v1.4.2 + libmatroska v1.6.4
    Attachments                 : CINEMANIAHD.png

    Video
    ID                          : 1
    Format                      : AVC
    Format/Info                 : Advanced Video Codec
    Format profile              : High@L4.1
    Format settings             : CABAC / 4 Ref Frames
    Format settings, CABAC      : Yes
    Format settings, Reference  : 4 frames
    Codec ID                    : V_MPEG4/ISO/AVC
    Duration                    : 1 h 37 min
    Bit rate                    : 5 062 kb/s
    Width                       : 1 920 pixels
    Height                      : 1 080 pixels
    Display aspect ratio        : 16:9
    Frame rate mode             : Constant
    Frame rate                  : 23.976 (24000/1001) FPS
    Color space                 : YUV
    Chroma subsampling          : 4:2:0
    Bit depth                   : 8 bits
    Scan type                   : Progressive
    Bits/(Pixel*Frame)          : 0.102
    Stream size                 : 3.44 GiB (64%)
    Title                       : Full HD1080p [CinemaniaHDD]
    Writing library             : x264 core 163 r3059 b684ebe0
    Encoding settings           : cabac=1 / ref=4 / deblock=1:0:0 / analyse=0x3:0x133 / me=tesa / subme=11 / psy=1 / psy_rd=1.00:0.00 / mixed_ref=1 / me_range=24 / chroma_me=1 / trellis=2 / 8x8dct=1 / cqm=0 / deadzone=21,11 / fast_pskip=0 / chroma_qp_offset=-2 / threads=24 / lookahead_threads=6 / sliced_threads=0 / nr=0 / decimate=1 / interlaced=0 / bluray_compat=0 / constrained_intra=0 / bframes=16 / b_pyramid=2 / b_adapt=2 / b_bias=0 / direct=3 / weightb=1 / open_gop=0 / weightp=2 / keyint=240 / keyint_min=24 / scenecut=40 / intra_refresh=0 / rc_lookahead=60 / rc=crf / mbtree=1 / crf=18.0 / qcomp=0.60 / qpmin=0 / qpmax=69 / qpstep=4 / vbv_maxrate=62500 / vbv_bufsize=78125 / crf_max=0.0 / nal_hrd=none / filler=0 / ip_ratio=1.40 / aq=1:1.00
    Default                     : Yes
    Forced                      : Yes
    Color range                 : Limited
    Color primaries             : BT.709
    Transfer characteristics    : BT.709
    Matrix coefficients         : BT.709

    Audio #1
    ID                          : 2
    Format                      : AC-3
    Format/Info                 : Audio Coding 3
    Commercial name             : Dolby Digital
    Codec ID                    : A_AC3
    Duration                    : 1 h 37 min
    Bit rate mode               : Constant
    Bit rate                    : 640 kb/s
    Channel(s)                  : 6 channels
    Channel layout              : L R C LFE Ls Rs
    Sampling rate               : 48.0 kHz
    Frame rate                  : 31.250 FPS (1536 SPF)
    Compression mode            : Lossy
    Stream size                 : 445 MiB (8%)
    Title                       : Español Latino AC3 [CinemaniaHDD]
    Language                    : Spanish
    Service kind                : Complete Main
    Default                     : Yes
    Forced                      : Yes

    Audio #2
    ID                          : 3
    Format                      : DTS
    Format/Info                 : Digital Theater Systems
    Codec ID                    : A_DTS
    Duration                    : 1 h 37 min
    Bit rate mode               : Constant
    Bit rate                    : 1 509 kb/s
    Channel(s)                  : 6 channels
    Channel layout              : C L R Ls Rs LFE
    Sampling rate               : 48.0 kHz
    Frame rate                  : 93.750 FPS (512 SPF)
    Bit depth                   : 24 bits
    Compression mode            : Lossy
    Stream size                 : 1.03 GiB (19%)
    Title                       : Ingles [CinemaniaHDD]
    Language                    : English
    Default                     : No
    Forced                      : No

    Audio #3
    ID                          : 4
    Format                      : E-AC-3
    Format/Info                 : Enhanced AC-3
    Commercial name             : Dolby Digital Plus
    Codec ID                    : A_EAC3
    Duration                    : 1 h 37 min
    Bit rate mode               : Constant
    Bit rate                    : 640 kb/s
    Channel(s)                  : 6 channels
    Channel layout              : L R C LFE Ls Rs
    Sampling rate               : 48.0 kHz
    Frame rate                  : 31.250 FPS (1536 SPF)
    Compression mode            : Lossy
    Delay relative to video     : 1 s 26 ms
    Stream size                 : 447 MiB (8%)
    Title                       : Español Latino EAC3 [CinemaniaHDD]
    Language                    : Spanish
    Service kind                : Complete Main
    Default                     : No
    Forced                      : No

    Text #1
    ID                          : 5
    Format                      : PGS
    Muxing mode                 : zlib
    Codec ID                    : S_HDMV/PGS
    Codec ID/Info               : Picture based subtitle format used on BDs/HD-DVDs
    Duration                    : 1 h 36 min
    Bit rate                    : 26.4 kb/s
    Count of elements           : 2174
    Stream size                 : 18.1 MiB (0%)
    Title                       : Español-PGS [CinemaniaHDD]
    Language                    : Spanish
    Default                     : No
    Forced                      : No

    Text #2
    ID                          : 6
    Format                      : PGS
    Muxing mode                 : zlib
    Codec ID                    : S_HDMV/PGS
    Codec ID/Info               : Picture based subtitle format used on BDs/HD-DVDs
    Duration                    : 1 h 27 min
    Bit rate                    : 31.9 kb/s
    Count of elements           : 2252
    Stream size                 : 19.9 MiB (0%)
    Title                       : Ingles-PGS [CinemaniaHDD]
    Language                    : English
    Default                     : No
    Forced                      : No

    Text #3
    ID                          : 7
    Format                      : UTF-8
    Codec ID                    : S_TEXT/UTF8
    Codec ID/Info               : UTF-8 Plain Text
    Duration                    : 42 min 4 s
    Bit rate                    : 1 b/s
    Count of elements           : 18
    Stream size                 : 487 Bytes (0%)
    Title                       : Forzados-SRT [CinemaniaHDD]
    Language                    : Spanish
    Default                     : Yes
    Forced                      : Yes

    Text #4
    ID                          : 8
    Format                      : UTF-8
    Codec ID                    : S_TEXT/UTF8
    Codec ID/Info               : UTF-8 Plain Text
    Duration                    : 1 h 36 min
    Bit rate                    : 46 b/s
    Count of elements           : 1087
    Stream size                 : 32.5 KiB (0%)
    Title                       : Español-SRT [CinemaniaHDD]
    Language                    : Spanish
    Default                     : No
    Forced                      : No

    Menu
    00:00:00.000                : Chapter 01
    00:05:24.991                : Chapter 02
    00:09:33.239                : Chapter 03
    00:12:20.406                : Chapter 04
    00:18:23.436                : Chapter 05
    00:23:01.213                : Chapter 06
    00:30:17.858                : Chapter 07
    00:35:03.601                : Chapter 08
    00:39:26.781                : Chapter 09
    00:45:35.066                : Chapter 10
    00:50:40.329                : Chapter 11
    00:55:29.826                : Chapter 12
    01:01:01.032                : Chapter 13
    01:06:57.639                : Chapter 14
    01:14:36.681                : Chapter 15
    01:21:57.579                : Chapter 16
    01:28:51.159                : Chapter 17

  • Peso: 5.36 GiB

Sinopsis

Descargar Venom: Carnage Liberado (2021) PLACEBO Full HD 1080p Latino. Eddie Brock (Tom Hardy) y su simbionte Venom todavía están intentando descubrir cómo vivir juntos cuando un preso que está en el corredor de la muerte (Woody Harrelson) se infecta con un simbionte propio.

Español Latino EAC3 & AC3 5.1 – Ingles DTS 5.1 BD

Ficha técnica

Video trailer de la película

Enlaces de descarga

Rip de Bluray

Descargar Venom: Carnage Liberado (2021) PLACEBO Full HD 1080p Latino




Aportes de DPeliculasHDmega la pass es:dpeliculashdmega.org Aportes de CinemaniaHD la pass es:cinemaniahdd.com

Películas relacionadas

  • Ghostbusters: El Legado (2021) HD 1080p Latino

    Ghostbusters: El Legado (2021) HD 1080p Latino

    2021
    Ghostbusters: El Legado (2021) HD 1080p Latino

    2h 4m 2021

    Descargar Ghostbusters: El Legado (2021) HD 1080p Latino. Una madre soltera y sus dos hijos se van a...

    Director: Jason Reitman

    Género: Aventura

    Actores: Tracy Letts

  • Eternals (2021) HD 1080p Latino

    Eternals (2021) HD 1080p Latino

    2021
    Eternals (2021) HD 1080p Latino

    2h 36m 2021

    Descargar Eternals (2021) HD 1080p Latino. Hace millones de años, los seres cósmicos conocidos como...

    Director: Simon Warnock

    Género: Acción

    Actores: Zain Al Rafeea

  • Eternals (2021) PLACEBO Full HD 1080p Latino

    Eternals (2021) PLACEBO Full HD 1080p Latino

    2021
    Eternals (2021) PLACEBO Full HD 1080p Latino

    2h 36m 2021

    Descargar Eternals (2021) PLACEBO Full HD 1080p Latino. Hace millones de años, los seres cósmicos conocidos...

    Director: Simon Warnock

    Género: Acción

    Actores: Zain Al Rafeea

  • Eternals (2021) REMUX 1080p Latino

    Eternals (2021) REMUX 1080p Latino

    2021
    Eternals (2021) REMUX 1080p Latino

    2h 36m 2021

    Descargar Eternals (2021) REMUX 1080p Latino. Hace millones de años, los seres cósmicos conocidos como...

    Director: Simon Warnock

    Género: Acción

    Actores: Zain Al Rafeea

  • Atrapada En El Fondo Del Mar (2020) HD 1080p Latino

    Atrapada En El Fondo Del Mar (2020) HD 1080p Latino

    2020
    Atrapada En El Fondo Del Mar (2020) HD 1080p Latino

    1h 22m 2020

    Descargar Atrapada En El Fondo Del Mar (2020) HD 1080p Latino. Las hermanastras Ida y Tuva sufren un...

    Director: Joachim Hedén

    Género: Acción

    Actores: Trine Wiggen

Venom: Carnage Liberado (2021) PLACEBO Full HD 1080p Latino pelicula full hd, Venom: Carnage Liberado (2021) PLACEBO Full HD 1080p Latino mega latino, Venom: Carnage Liberado (2021) PLACEBO Full HD 1080p Latino 4k latino, Venom: Carnage Liberado (2021) PLACEBO Full HD 1080p Latino pelicula completa, Venom: Carnage Liberado (2021) PLACEBO Full HD 1080p Latino descargar gratis, descargar Venom: Carnage Liberado (2021) PLACEBO Full HD 1080p Latino pelicula latino, Venom: Carnage Liberado (2021) PLACEBO Full HD 1080p Latino 1 link mega, Venom: Carnage Liberado (2021) PLACEBO Full HD 1080p Latino 1 link google drive, Venom: Carnage Liberado (2021) PLACEBO Full HD 1080p Latino hd 1080p latino.
Comentarios 0