×

¿Problemas para descargar con Mozilla, EDGE? Deshabilita la opción "Abrir vinculos en una pestaña nueva" tal como lo muestra ésta imagen.

Venom: Carnage Liberado (2021) HD 1080p Latino

484 vistas

Información de Venom: Carnage Liberado (2021) HD 1080p Latino

Datos de la película

  • Calidad: 1080p
  • Audio: Español Latino AC3 5.1 WEB-DL - Ingles AC3 5.1 BLURAY
  • Subtitulos: Español Latino SRT- FORZADOS SRT
  • Resolución: 1920x1040p
  • Formato: MKV
  • Codec: H.264
  • Encoder: Melkor
  • Mediainfo: Clic para Mostrar Datos Ver
  • Venom Carnage Liberado (2021) HD 1080p Latino.mkv
    Format                      : Matroska
    Format version              : Version 4
    File size                   : 3.24 GiB
    Duration                    : 1 h 37 min
    Overall bit rate            : 4 770 kb/s
    Movie name                  : Venom Let There Be Carnage (2021) CinemaniaHDD.Net
    Encoded date                : UTC 2021-12-07 22:18:34
    Writing application         : mkvmerge v56.1.0 ('My Friend') 64-bit
    Writing library             : libebml v1.4.2 + libmatroska v1.6.4
    Attachments                 : CINEMANIAHD.png

    Video
    ID                          : 1
    Format                      : AVC
    Format/Info                 : Advanced Video Codec
    Format profile              : High@L4.1
    Format settings             : CABAC / 4 Ref Frames
    Format settings, CABAC      : Yes
    Format settings, Reference  : 4 frames
    Codec ID                    : V_MPEG4/ISO/AVC
    Duration                    : 1 h 37 min
    Bit rate                    : 3 679 kb/s
    Width                       : 1 920 pixels
    Height                      : 1 036 pixels
    Display aspect ratio        : 1.85:1
    Frame rate mode             : Constant
    Frame rate                  : 23.976 (24000/1001) FPS
    Color space                 : YUV
    Chroma subsampling          : 4:2:0
    Bit depth                   : 8 bits
    Scan type                   : Progressive
    Bits/(Pixel*Frame)          : 0.077
    Stream size                 : 2.50 GiB (77%)
    Title                       : HD1080p [CinemaniaHDD]
    Writing library             : x264 core 163 r3059 b684ebe0
    Encoding settings           : cabac=1 / ref=4 / deblock=1:-1:-1 / analyse=0x3:0x133 / me=umh / subme=9 / psy=1 / psy_rd=1.00:0.15 / mixed_ref=1 / me_range=16 / chroma_me=1 / trellis=2 / 8x8dct=1 / cqm=0 / deadzone=21,11 / fast_pskip=1 / chroma_qp_offset=-3 / threads=24 / lookahead_threads=2 / sliced_threads=0 / nr=0 / decimate=1 / interlaced=0 / bluray_compat=0 / constrained_intra=0 / bframes=3 / b_pyramid=2 / b_adapt=2 / b_bias=0 / direct=3 / weightb=1 / open_gop=0 / weightp=2 / keyint=240 / keyint_min=24 / scenecut=40 / intra_refresh=0 / rc_lookahead=60 / rc=crf / mbtree=1 / crf=20.0 / qcomp=0.60 / qpmin=0 / qpmax=69 / qpstep=4 / vbv_maxrate=62500 / vbv_bufsize=78125 / crf_max=0.0 / nal_hrd=none / filler=0 / ip_ratio=1.40 / aq=1:1.00
    Default                     : Yes
    Forced                      : Yes
    Color range                 : Limited
    Color primaries             : BT.709
    Transfer characteristics    : BT.709
    Matrix coefficients         : BT.709

    Audio #1
    ID                          : 2
    Format                      : AC-3
    Format/Info                 : Audio Coding 3
    Commercial name             : Dolby Digital
    Codec ID                    : A_AC3
    Duration                    : 1 h 37 min
    Bit rate mode               : Constant
    Bit rate                    : 640 kb/s
    Channel(s)                  : 6 channels
    Channel layout              : L R C LFE Ls Rs
    Sampling rate               : 48.0 kHz
    Frame rate                  : 31.250 FPS (1536 SPF)
    Compression mode            : Lossy
    Stream size                 : 445 MiB (13%)
    Title                       : Español Latino [CinemaniaHDD]
    Language                    : Spanish
    Service kind                : Complete Main
    Default                     : Yes
    Forced                      : Yes

    Audio #2
    ID                          : 3
    Format                      : AC-3
    Format/Info                 : Audio Coding 3
    Commercial name             : Dolby Digital
    Codec ID                    : A_AC3
    Duration                    : 1 h 37 min
    Bit rate mode               : Constant
    Bit rate                    : 448 kb/s
    Channel(s)                  : 6 channels
    Channel layout              : L R C LFE Ls Rs
    Sampling rate               : 48.0 kHz
    Frame rate                  : 31.250 FPS (1536 SPF)
    Compression mode            : Lossy
    Stream size                 : 312 MiB (9%)
    Title                       : Ingles [CinemaniaHDD]
    Language                    : English
    Service kind                : Complete Main
    Default                     : No
    Forced                      : No

    Text #1
    ID                          : 4
    Format                      : UTF-8
    Codec ID                    : S_TEXT/UTF8
    Codec ID/Info               : UTF-8 Plain Text
    Duration                    : 42 min 4 s
    Bit rate                    : 1 b/s
    Count of elements           : 18
    Stream size                 : 487 Bytes (0%)
    Title                       : Forzados-SRT [CinemaniaHDD]
    Language                    : Spanish
    Default                     : Yes
    Forced                      : Yes

    Text #2
    ID                          : 5
    Format                      : UTF-8
    Codec ID                    : S_TEXT/UTF8
    Codec ID/Info               : UTF-8 Plain Text
    Duration                    : 1 h 36 min
    Bit rate                    : 46 b/s
    Count of elements           : 1087
    Stream size                 : 32.5 KiB (0%)
    Title                       : Español-SRT [CinemaniaHDD]
    Language                    : Spanish
    Default                     : No
    Forced                      : No

    Text #3
    ID                          : 6
    Format                      : UTF-8
    Codec ID                    : S_TEXT/UTF8
    Codec ID/Info               : UTF-8 Plain Text
    Duration                    : 1 h 35 min
    Bit rate                    : 60 b/s
    Count of elements           : 1495
    Stream size                 : 42.3 KiB (0%)
    Title                       : Ingles-SRT [CinemaniaHDD]
    Language                    : English
    Default                     : No
    Forced                      : No

    Menu
    00:00:00.005                : :Chapter 1
    00:05:24.329                : :Chapter 2
    00:09:33.453                : :Chapter 3
    00:12:20.536                : :Chapter 4
    00:18:23.649                : :Chapter 5
    00:23:00.718                : :Chapter 6
    00:30:18.071                : :Chapter 7
    00:35:03.023                : :Chapter 8
    00:39:26.995                : :Chapter 9
    00:45:35.238                : :Chapter 10
    00:50:40.459                : :Chapter 11
    00:55:29.957                : :Chapter 12
    01:01:01.163                : :Chapter 13
    01:06:57.769                : :Chapter 14
    01:14:36.811                : :Chapter 15
    01:21:57.000                : :Chapter 16

    Source: BD50

  • Peso: 3.43 GiB

Sinopsis

Descagar Venom: Carnage Liberado (2021) HD 1080p Latino. Eddie Brock (Tom Hardy) y su simbionte Venom todavía están intentando descubrir cómo vivir juntos cuando un preso que está en el corredor de la muerte (Woody Harrelson) se infecta con un simbionte propio.

Ficha técnica

Video trailer de la película

Enlaces de descarga

Rip de Bluray

Descargar Venom: Carnage Liberado (2021) HD 1080p Latino




Aportes de DPeliculasHDmega la pass es:dpeliculashdmega.org Aportes de CinemaniaHD la pass es:cinemaniahdd.com

Películas relacionadas

descargar Venom: Carnage Liberado (2021) HD 1080p Latino 1080p 1080p gratis, Venom: Carnage Liberado (2021) HD 1080p Latino 1080p mega 1 link, Venom: Carnage Liberado (2021) HD 1080p Latino 1080p pelicula completa, descargar Venom: Carnage Liberado (2021) HD 1080p Latino 1080p gratis en mega.

Venom: Carnage Liberado (2021) HD 1080p Latino pelicula full hd, Venom: Carnage Liberado (2021) HD 1080p Latino mega latino, Venom: Carnage Liberado (2021) HD 1080p Latino 4k latino, Venom: Carnage Liberado (2021) HD 1080p Latino pelicula completa, Venom: Carnage Liberado (2021) HD 1080p Latino descargar gratis, descargar Venom: Carnage Liberado (2021) HD 1080p Latino pelicula latino, Venom: Carnage Liberado (2021) HD 1080p Latino 1 link mega, Venom: Carnage Liberado (2021) HD 1080p Latino 1 link google drive, Venom: Carnage Liberado (2021) HD 1080p Latino hd 1080p latino.