Venom (2018) 1080p Latino

13.232 vistas
1 estrella2 estrellas3 estrellas4 estrellas5 estrellas (16 votos, promedio: 4,25 de 5)
Cargando...

Información de Venom (2018) 1080p Latino

Datos de la película

  • Calidad: 1080p
  • Audio: Español Latino AC3 5.1 BLURAY - Ingles AC3 5.1 BLURAY
  • Subtitulos: Español Latino SRT - Ingles SRT
  • Resolución: 1920x800p
  • Formato: MKV
  • Codec: H.264
  • Encoder: CinefiloCool
  • Mediainfo: Clic para Mostrar Datos Ver
  • Venom (2018) 1080p Latino-CMHDD.mkv
    Format                      : Matroska
    Format version              : Version 4
    File size                   : 3.58 GiB
    Duration                    : 1 h 52 min
    Overall bit rate            : 4 566 kb/s
    Movie name                  : Venom (2018) CinemaniaHDD.Net
    Encoded date                : UTC 2021-10-12 07:58:30
    Writing application         : mkvmerge v56.1.0 ('My Friend') 64-bit
    Writing library             : libebml v1.4.2 + libmatroska v1.6.4
    Attachments                 : CINEMANIAHD.png

    Video
    ID                          : 1
    Format                      : AVC
    Format/Info                 : Advanced Video Codec
    Format profile              : High@L4.1
    Format settings             : CABAC / 5 Ref Frames
    Format settings, CABAC      : Yes
    Format settings, Reference  : 5 frames
    Codec ID                    : V_MPEG4/ISO/AVC
    Duration                    : 1 h 52 min
    Bit rate                    : 3 475 kb/s
    Width                       : 1 920 pixels
    Height                      : 800 pixels
    Display aspect ratio        : 2.40:1
    Frame rate mode             : Constant
    Frame rate                  : 23.976 (24000/1001) FPS
    Color space                 : YUV
    Chroma subsampling          : 4:2:0
    Bit depth                   : 8 bits
    Scan type                   : Progressive
    Bits/(Pixel*Frame)          : 0.094
    Stream size                 : 2.72 GiB (76%)
    Title                       : HD1080p [CinemaniaHDD]
    Writing library             : x264 core 164 r3065 ae03d92
    Encoding settings           : cabac=1 / ref=5 / deblock=1:-3:-3 / analyse=0x3:0x133 / me=umh / subme=11 / psy=1 / psy_rd=1.00:0.00 / mixed_ref=1 / me_range=32 / chroma_me=1 / trellis=2 / 8x8dct=1 / cqm=0 / deadzone=21,11 / fast_pskip=0 / chroma_qp_offset=-2 / threads=18 / lookahead_threads=1 / sliced_threads=0 / nr=0 / decimate=0 / interlaced=0 / bluray_compat=0 / constrained_intra=0 / bframes=5 / b_pyramid=2 / b_adapt=2 / b_bias=0 / direct=3 / weightb=1 / open_gop=0 / weightp=2 / keyint=250 / keyint_min=23 / scenecut=40 / intra_refresh=0 / rc_lookahead=60 / rc=crf / mbtree=1 / crf=22.0 / qcomp=0.70 / qpmin=0 / qpmax=26 / qpstep=4 / ip_ratio=1.40 / aq=1:1.00
    Default                     : Yes
    Forced                      : Yes

    Audio #1
    ID                          : 2
    Format                      : AC-3
    Format/Info                 : Audio Coding 3
    Commercial name             : Dolby Digital
    Codec ID                    : A_AC3
    Duration                    : 1 h 52 min
    Bit rate mode               : Constant
    Bit rate                    : 640 kb/s
    Channel(s)                  : 6 channels
    Channel layout              : L R C LFE Ls Rs
    Sampling rate               : 48.0 kHz
    Frame rate                  : 31.250 FPS (1536 SPF)
    Compression mode            : Lossy
    Delay relative to video     : 32 ms
    Stream size                 : 513 MiB (14%)
    Title                       : Español Latino [CinemaniaHDD]
    Language                    : Spanish
    Service kind                : Complete Main
    Default                     : Yes
    Forced                      : Yes

    Audio #2
    ID                          : 3
    Format                      : AC-3
    Format/Info                 : Audio Coding 3
    Commercial name             : Dolby Digital
    Codec ID                    : A_AC3
    Duration                    : 1 h 52 min
    Bit rate mode               : Constant
    Bit rate                    : 448 kb/s
    Channel(s)                  : 6 channels
    Channel layout              : L R C LFE Ls Rs
    Sampling rate               : 48.0 kHz
    Frame rate                  : 31.250 FPS (1536 SPF)
    Compression mode            : Lossy
    Stream size                 : 359 MiB (10%)
    Title                       : Ingles [CinemaniaHDD]
    Language                    : English
    Service kind                : Complete Main
    Default                     : No
    Forced                      : No

    Text #1
    ID                          : 4
    Format                      : UTF-8
    Codec ID                    : S_TEXT/UTF8
    Codec ID/Info               : UTF-8 Plain Text
    Duration                    : 1 h 48 min
    Bit rate                    : 0 b/s
    Count of elements           : 21
    Stream size                 : 535 Bytes (0%)
    Title                       : Forzados-SRT [CinemaniaHDD]
    Language                    : Spanish
    Default                     : Yes
    Forced                      : No

    Text #2
    ID                          : 5
    Format                      : UTF-8
    Codec ID                    : S_TEXT/UTF8
    Codec ID/Info               : UTF-8 Plain Text
    Duration                    : 1 h 49 min
    Bit rate                    : 47 b/s
    Count of elements           : 1185
    Stream size                 : 38.0 KiB (0%)
    Title                       : Español-SRT [CinemaniaHDD]
    Language                    : Spanish
    Default                     : No
    Forced                      : No

    Text #3
    ID                          : 6
    Format                      : UTF-8
    Codec ID                    : S_TEXT/UTF8
    Codec ID/Info               : UTF-8 Plain Text
    Duration                    : 1 h 49 min
    Bit rate                    : 56 b/s
    Count of elements           : 1395
    Stream size                 : 45.1 KiB (0%)
    Title                       : Ingles-SRT [CinemaniaHDD]
    Language                    : English
    Default                     : No
    Forced                      : No

    Menu
    00:00:00.000                : Chapter 01
    00:04:43.200                : Chapter 02
    00:10:58.074                : Chapter 03
    00:17:34.929                : Chapter 04
    00:24:05.486                : Chapter 05
    00:32:18.812                : Chapter 06
    00:40:07.447                : Chapter 07
    00:46:51.976                : Chapter 08
    00:53:26.203                : Chapter 09
    01:00:57.070                : Chapter 10
    01:04:01.796                : Chapter 11
    01:08:36.446                : Chapter 12
    01:11:12.852                : Chapter 13
    01:14:15.743                : Chapter 14
    01:21:18.749                : Chapter 15
    01:27:15.021                : Chapter 16

  • Peso: 3.58 GiB

Sinopsis

Descargar Venom (2018) 1080p Latino. Eddie Brock (Tom Hardy) es un consolidado periodista y astuto reportero que está investigando una empresa llamada Fundación Vida. Esta fundación, dirigida por el eminente científico Carlton Drake (Riz Ahmed), está ejecutando secretamente experimentos ilegales en seres humanos y realizando pruebas que involucran formas de vida extraterrestres y amorfas conocidas como simbiontes. Durante una visita furtiva a la central, el periodista quedará infectado por un simbionte. Comenzará entonces a experimentar cambios en su cuerpo que no entiende, y escuchará una voz interior, la del simbionte Venom, que le dirá lo que tiene que hacer. Cuando Brock adquiera los poderes del simbionte que le usa como huésped, Venom tomará posesión de su cuerpo, convirtiéndole en un despiadado y peligroso súpervillano.

Ficha técnica

Video trailer de la película

Enlaces de descarga

Aportes de DPeliculasHDmega la pass es:dpeliculashdmega.org Aportes de CinemaniaHD la pass es:cinemaniahdd.com
Guardado en : Ciencia ficción , HD 1080p

Películas relacionadas

  • Dune (2021) HMAX 4K-HDR WEB-DL 2160p Latino

    Dune (2021) HMAX 4K-HDR WEB-DL 2160p Latino

    2021
    Dune (2021) HMAX 4K-HDR WEB-DL 2160p Latino

    5.0 2h 35m 2021

    El hijo de una familia noble trata de vengarse de la muerte de su padre al mismo tiempo que salva un...

    Director: Tom Struthers

    Género: Acción

    Actores: Zendaya

  • Dune (2021) HMAX WEB-DL 1080p Latino

    Dune (2021) HMAX WEB-DL 1080p Latino

    2021
    Dune (2021) HMAX WEB-DL 1080p Latino

    5.0 2h 35m 2021

    El hijo de una familia noble trata de vengarse de la muerte de su padre al mismo tiempo que salva un...

    Director: Tom Struthers

    Género: Acción

    Actores: Zendaya

  • Playhouse (2020) HD 1080p Latino

    Playhouse (2020) HD 1080p Latino

    2020
    Playhouse (2020) HD 1080p Latino

    0.0 1h 27m 2020

    Descargar Playhouse (2020) HD 1080p Latino. El temerario Jack Travis (William Holstead) es un irreverente...

    Director: Toby Watts

    Género: HD 1080p

    Actores: William Holstead

Venom (2018) 1080p Latino pelicula full hd, Venom (2018) 1080p Latino mega latino, Venom (2018) 1080p Latino 4k latino, Venom (2018) 1080p Latino pelicula completa, Venom (2018) 1080p Latino descargar gratis, descargar Venom (2018) 1080p Latino pelicula latino, Venom (2018) 1080p Latino 1 link mega, Venom (2018) 1080p Latino 1 link google drive, Venom (2018) 1080p Latino hd 1080p latino.
Comentarios 15
  • Levi - 11 diciembre, 2018

    No he visto ni descargado esta película, sólo quiero comentar… 🙂
    me parece un muy buen sitio para descargar películas, los enlaces van directo a los archivos y no a esos acortadores llenos de publicidad, las películas tienen buena calidad.
    Quiero felicitar a los responsables del sitio y alentar a continuar aportando, yo no tengo peliculas para aportar(recien empiezo a descargar) y las que he descargado de otros sitios están en calidad inferior, no vale la pena subirlas aquí.
    Pero pienso conseguir pronto un disco externo y copiar un montón de películas para aportar a este sitio, supongo que las puedo compartir con los encargados a travez de Mega.
    Felicidades nuevamente a los encargados y ánimo
    y a los que descargan, aporten para que mejore la variedad

  • Pedro B. - 08 diciembre, 2018

    Al intentar descargar por google me dice que el archivo no esta disponible y eso mismo pasa con otras peliculas que en su enlace incluye la parte de sec27.edu.mx en el link de descarga, pero ni quitando esa parte funciona el enlace. 🙁

    • dpelis - 09 diciembre, 2018

      use el torrent

  • Sapoberto - 08 diciembre, 2018

    Gracias por la. película pero. el audio no está sincronizado

    • dpelis - 08 diciembre, 2018

      reparado, gracias por avisar , Saludos

  • Raúl - 07 diciembre, 2018

    Muchas gracias, solo para infomar que el audio esta mal sincronizado, yo lo pude sicronizar con el MkvEdge pero solo les informo, para que arreglen el poblema antes que mas gente la baje, Saludos.

    • dpelis - 08 diciembre, 2018

      gracias fue reparado, con un delay de -1000 ya queda solucionado. Saludos

  • Lucas - 07 diciembre, 2018

    El Audio esta desincronizado, o soy solo yo?

    • dpelis - 07 diciembre, 2018

      que minuto?

      • Lucas - 08 diciembre, 2018

        Toda la película,la descarga le hice por torrent, igualmente pude ajustarla

        • dpelis - 08 diciembre, 2018

          necesito saber el tiempo para revisar, porque nadie mas a mencionado

  • jordan - 28 noviembre, 2018

    una consulta el video esta bien ya que en otro sitio tenia la pelicula frenada en post credito viene el corto de hombre araña animado

    • dpelis - 28 noviembre, 2018

      ya se comento que el video esta bien. todo limpio, y tiene los extras del spider man

  • oscar2030 - 28 noviembre, 2018

    Hola! esta version esta limpia? pregunto porque me la descargue de otro sitio y tenia spam en el audio y vídeo

    • dpelis - 28 noviembre, 2018

      descargar sin problema. todo limpio