×

¿Problemas para descargar con Mozilla, EDGE? Deshabilita la opción "Abrir vinculos en una pestaña nueva" tal como lo muestra ésta imagen.

Vengadores: Endgame (2019) EXTRAS AMZN Web-dl 1080p Subtitulado

3.046 vistas

Información de Vengadores: Endgame (2019) EXTRAS AMZN Web-dl 1080p Subtitulado

vengadores endgame 55916 poster

Datos de la película

  • Calidad: WEBDL
  • Audio: Se especifica abajo de la Sinopsis
  • Subtitulos: Español Latino SRT - Ingles SRT
  • Resolución: 1920x1080p
  • Formato: MKV
  • Codec: H.264
  • Encoder: NTG
  • Mediainfo: Clic para Mostrar Datos Ver
  • Avengers Endgame (2019) EXTRAS AMZN Web-DL 1080p Subtitulado.mkv
    Format                      : Matroska
    Format version              : Version 4
    File size                   : 4.21 GiB
    Duration                    : 1 h 1 min
    Overall bit rate            : 9 808 kb/s
    Movie name                  : CinemaniaHDD.Net
    Encoded date                : UTC 2019-08-09 01:19:15
    Writing application         : mkvmerge v35.0.0 ('All The Love In The World') 64-bit
    Writing library             : libebml v1.3.9 + libmatroska v1.5.2
    Attachments                 : CINEMANIAHD.png

    Video
    ID                          : 1
    Format                      : AVC
    Format/Info                 : Advanced Video Codec
    Format profile              : High@L4
    Format settings             : CABAC / 4 Ref Frames
    Format settings, CABAC      : Yes
    Format settings, ReFrames   : 4 frames
    Format settings, GOP        : M=4, N=48
    Codec ID                    : V_MPEG4/ISO/AVC
    Duration                    : 1 h 1 min
    Bit rate mode               : Constant
    Bit rate                    : 10 000 kb/s
    Width                       : 1 920 pixels
    Height                      : 1 080 pixels
    Display aspect ratio        : 16:9
    Frame rate mode             : Constant
    Frame rate                  : 23.976 (24000/1001) FPS
    Color space                 : YUV
    Chroma subsampling          : 4:2:0
    Bit depth                   : 8 bits
    Scan type                   : Progressive
    Bits/(Pixel*Frame)          : 0.201
    Stream size                 : 4.10 GiB (97%)
    Title                       : HD1080p [Web-DL]
    Default                     : Yes
    Forced                      : No
    Color range                 : Limited
    Color primaries             : BT.709
    Transfer characteristics    : BT.709
    Matrix coefficients         : BT.709

    Audio
    ID                          : 2
    Format                      : E-AC-3
    Format/Info                 : Enhanced AC-3
    Commercial name             : Dolby Digital Plus
    Codec ID                    : A_EAC3
    Duration                    : 1 h 1 min
    Bit rate mode               : Constant
    Bit rate                    : 256 kb/s
    Channel(s)                  : 6 channels
    Channel layout              : L R C LFE Ls Rs
    Sampling rate               : 48.0 kHz
    Frame rate                  : 31.250 FPS (1536 SPF)
    Compression mode            : Lossy
    Delay relative to video     : 6 ms
    Stream size                 : 113 MiB (3%)
    Title                       : DDP_5.1_Web-DL_Eng
    Language                    : English
    Service kind                : Complete Main
    Default                     : Yes
    Forced                      : No

    Text #1
    ID                          : 3
    Format                      : UTF-8
    Codec ID                    : S_TEXT/UTF8
    Codec ID/Info               : UTF-8 Plain Text
    Duration                    : 1 h 1 min
    Bit rate                    : 118 b/s
    Count of elements           : 1277
    Stream size                 : 53.3 KiB (0%)
    Title                       : Sub_Esp
    Language                    : Spanish
    Default                     : Yes
    Forced                      : Yes

    Text #2
    ID                          : 4
    Format                      : UTF-8
    Codec ID                    : S_TEXT/UTF8
    Codec ID/Info               : UTF-8 Plain Text
    Duration                    : 1 h 1 min
    Bit rate                    : 112 b/s
    Count of elements           : 1267
    Stream size                 : 50.6 KiB (0%)
    Title                       : Sub_Eng
    Language                    : English
    Default                     : No
    Forced                      : No

    Menu
    00:00:00.000                : en:End Credits
    00:00:00.142                : en:Featurettes
    00:00:05.142                : en:Remembering Stan Lee
    00:07:20.142                : en:Setting The Tone: Casting Robert Downey Jr.
    00:12:45.142                : en:A Man Out of Time: Creating Captain America
    00:25:03.142                : en:Black Widow: Whatever It Takes
    00:32:28.142                : en:The Russo Brothers: Journey to Endgame
    00:37:29.142                : en:The Women of the MCU
    00:42:22.142                : en:Bro Thor
    00:46:04.142                : en:Steve and Peggy: One Last Dance
    00:51:58.142                : en:Deleted Scenes
    00:52:02.142                : en:Goji Berries
    00:52:39.142                : en:Bombs on Board
    00:53:08.142                : en:Suckiest Army in the Galaxy
    00:53:34.142                : en:You Used to Frickin’ Live Here
    00:54:43.142                : en:Tony and Howard
    00:55:11.142                : en:Avengers Take a Knee
    00:56:52.142                : en:Gag Reel
    00:58:54.142                : en:Visionary Intro
    01:01:27.142                : en:Writer and Director Audio Commentary

  • Peso: 4.21 GiB

Sinopsis

Descargar Vengadores: Endgame (2019) EXTRAS AMZN Web-dl 1080p Subtitulado. Despues de mas de 10 años de trabajo la Saga del Infinito llega a su fin y cierra con broche de oro, con miles de experiencias el equipo de Marvel Studios nos cuenta como fue el ser parte de probablemente una de las sagas mas populares de los ultimos tiempos  y en este «bonus» de la pelicula Avengers Endgame; los detras de camaras, bloopers y/o comentarios de los hermanos Russo y todo el staff nos muestran su punto de vista del antes y el despues de este el mas grande fenomeno cinematografico de la ultima decada, revive las peliculas con los comentarios del equipo o recapitula los increibles cameos y apariciones en este ultimo y maravilloso agradecimiento a Stan Lee, que sin Él esto no hubiera sido posible. ¡LO QUEREMOS 3000!

Después de los eventos devastadores de ‘Vengadores: Infinity War’, el universo está en ruinas debido a las acciones de Thanos. Con la ayuda de los aliados que quedaron, los Vengadores deberán reunirse una vez más para intentar deshacer sus acciones y restaurar el orden en el pelisonline.co universo de una vez por todas, sin importar cuáles sean las consecuencias… Cuarta y última entrega de la saga «Vengadores».

Audio Ingles E-AC3 5.1 Amazon

Ficha técnica

Video trailer de la película

Enlaces de descarga

Rip de Bluray

Descargar Vengadores: Endgame (2019) EXTRAS AMZN Web-dl 1080p Subtitulado




Aportes de DPeliculasHDmega la pass es:dpeliculashdmega.org Aportes de CinemaniaHD la pass es:cinemaniahdd.com
Guardado en : Acción , Aventura , Ciencia ficción

Películas relacionadas

descargar Vengadores: Endgame (2019) EXTRAS AMZN Web-dl 1080p Subtitulado WEBDL 1080p gratis, Vengadores: Endgame (2019) EXTRAS AMZN Web-dl 1080p Subtitulado WEBDL mega 1 link, Vengadores: Endgame (2019) EXTRAS AMZN Web-dl 1080p Subtitulado WEBDL pelicula completa, descargar Vengadores: Endgame (2019) EXTRAS AMZN Web-dl 1080p Subtitulado WEBDL gratis en mega.

Vengadores: Endgame (2019) EXTRAS AMZN Web-dl 1080p Subtitulado pelicula full hd, Vengadores: Endgame (2019) EXTRAS AMZN Web-dl 1080p Subtitulado mega latino, Vengadores: Endgame (2019) EXTRAS AMZN Web-dl 1080p Subtitulado 4k latino, Vengadores: Endgame (2019) EXTRAS AMZN Web-dl 1080p Subtitulado pelicula completa, Vengadores: Endgame (2019) EXTRAS AMZN Web-dl 1080p Subtitulado descargar gratis, descargar Vengadores: Endgame (2019) EXTRAS AMZN Web-dl 1080p Subtitulado pelicula latino, Vengadores: Endgame (2019) EXTRAS AMZN Web-dl 1080p Subtitulado 1 link mega, Vengadores: Endgame (2019) EXTRAS AMZN Web-dl 1080p Subtitulado 1 link google drive, Vengadores: Endgame (2019) EXTRAS AMZN Web-dl 1080p Subtitulado hd 1080p latino.
Comentarios 0