×

¿Problemas para descargar con Mozilla, EDGE? Deshabilita la opción "Abrir vinculos en una pestaña nueva" tal como lo muestra ésta imagen.

Van Helsing (2004) REMUX 4K HDR Latino – CMHDD

13 vistas

Información de Van Helsing (2004) REMUX 4K HDR Latino – CMHDD

Datos de la película

  • Calidad: 4K HDR
  • Audio: Español Latino DTS 5.1 BLURAY - Ingles DTS-HD Master 7.1 BLURAY
  • Subtitulos: Español Latino SRT- FORZADOS SRT
  • Resolución: 3840x2160p
  • Formato: MKV
  • Codec: H.264
  • Encoder: Dracarys
  • Mediainfo: Clic para Mostrar Datos Ver
  • Format                      : Matroska
    Format version              : Version 4
    File size                   : 47.8 GiB
    Duration                    : 2 h 11 min
    Overall bit rate mode       : Variable
    Overall bit rate            : 52.0 Mb/s
    Movie name                  : Van Helsing (2004) REMUX 4K HDR Latino - CMHDD
    Encoded date                : UTC 2024-07-06 01:09:01
    Writing application         : mkvmerge v47.0.0 ('Black Flag') 64-bit
    Writing library             : libebml v1.3.10 + libmatroska v1.5.2

    Video
    ID                          : 1
    Format                      : HEVC
    Format/Info                 : High Efficiency Video Coding
    Format profile              : Main 10@L5.1@High
    HDR format                  : SMPTE ST 2086, HDR10 compatible
    Codec ID                    : V_MPEGH/ISO/HEVC
    Duration                    : 2 h 11 min
    Bit rate                    : 42.5 Mb/s
    Width                       : 3 840 pixels
    Height                      : 2 160 pixels
    Display aspect ratio        : 16:9
    Frame rate mode             : Constant
    Frame rate                  : 23.976 (24000/1001) FPS
    Color space                 : YUV
    Chroma subsampling          : 4:2:0 (Type 2)
    Bit depth                   : 10 bits
    Bits/(Pixel*Frame)          : 0.213
    Stream size                 : 39.0 GiB (82%)
    Writing library             : ATEME Titan File 3.7.9 (4.7.9.0)
    Default                     : Yes
    Forced                      : No
    Color range                 : Limited
    Color primaries             : BT.2020
    Transfer characteristics    : PQ
    Matrix coefficients         : BT.2020 non-constant
    Mastering display color pri : Display P3
    Mastering display luminance : min: 0.0050 cd/m2, max: 1000 cd/m2
    Maximum Content Light Level : 1001 cd/m2
    Maximum Frame-Average Light : 535 cd/m2

    Audio #1
    ID                          : 2
    Format                      : DTS
    Format/Info                 : Digital Theater Systems
    Codec ID                    : A_DTS
    Duration                    : 2 h 11 min
    Bit rate mode               : Constant
    Bit rate                    : 768 kb/s
    Channel(s)                  : 6 channels
    Channel layout              : C L R Ls Rs LFE
    Sampling rate               : 48.0 kHz
    Frame rate                  : 93.750 FPS (512 SPF)
    Bit depth                   : 24 bits
    Compression mode            : Lossy
    Stream size                 : 723 MiB (1%)
    Language                    : Spanish
    Default                     : Yes
    Forced                      : Yes

    Audio #2
    ID                          : 3
    Format                      : DTS XLL X
    Format/Info                 : Digital Theater Systems
    Commercial name             : DTS-HD Master Audio
    Codec ID                    : A_DTS
    Duration                    : 2 h 11 min
    Bit rate mode               : Variable
    Bit rate                    : 8 729 kb/s
    Channel(s)                  : 8 channels
    Channel(s)_Original         : Object Based
    ChannelLayout_Original      : Object Based
    Sampling rate               : 48.0 kHz
    Frame rate                  : 93.750 FPS (512 SPF)
    Bit depth                   : 24 bits
    Stream size                 : 8.02 GiB (17%)
    Language                    : English
    Default                     : No
    Forced                      : No

    Text #1
    ID                          : 4
    Format                      : UTF-8
    Codec ID                    : S_TEXT/UTF8
    Codec ID/Info               : UTF-8 Plain Text
    Duration                    : 2 h 1 min
    Bit rate                    : 0 b/s
    Count of elements           : 10
    Stream size                 : 192 Bytes (0%)
    Title                       : Forzados SRT
    Language                    : Spanish
    Default                     : Yes
    Forced                      : Yes

    Text #2
    ID                          : 5
    Format                      : UTF-8
    Codec ID                    : S_TEXT/UTF8
    Codec ID/Info               : UTF-8 Plain Text
    Duration                    : 1 h 58 min
    Bit rate                    : 38 b/s
    Count of elements           : 1059
    Stream size                 : 33.1 KiB (0%)
    Title                       : Completos SRT
    Language                    : Spanish
    Default                     : No
    Forced                      : No

    Text #3
    ID                          : 6
    Format                      : PGS
    Muxing mode                 : zlib
    Codec ID                    : S_HDMV/PGS
    Codec ID/Info               : Picture based subtitle format used on BDs/HD-DVDs
    Duration                    : 2 h 1 min
    Bit rate                    : 162 b/s
    Count of elements           : 20
    Stream size                 : 145 KiB (0%)
    Title                       : Forzados PGS
    Language                    : Spanish
    Default                     : No
    Forced                      : No

    Text #4
    ID                          : 7
    Format                      : PGS
    Muxing mode                 : zlib
    Codec ID                    : S_HDMV/PGS
    Codec ID/Info               : Picture based subtitle format used on BDs/HD-DVDs
    Duration                    : 2 h 1 min
    Bit rate                    : 21.0 kb/s
    Count of elements           : 1874
    Stream size                 : 18.2 MiB (0%)
    Title                       : Completos PGS
    Language                    : Spanish
    Default                     : No
    Forced                      : No

     

  • Peso: 47.8 GiB

Sinopsis

Siglo XIX. En medio de los montes de los Cárpatos está la misteriosa y mítica Transilvania, donde el mal siempre está presente, el peligro aparece cuando el sol se pone… y donde toman forma los monstruos que habitan las pesadillas de los hombres.

Ficha técnica

Video trailer de la película

Enlaces de descarga

Rip de Bluray

Descargar Van Helsing (2004) REMUX 4K HDR Latino – CMHDD




Aportes de DPeliculasHDmega la pass es:dpeliculashdmega.org Aportes de CinemaniaHD la pass es:cinemaniahdd.com Aportes recientes:cinemaniahdd.net
Guardado en : Acción , Aventura , Terror

Películas relacionadas

  • Profesión peligro (2024) 1080p Latino-CMHDD

    Profesión peligro (2024) 1080p Latino-CMHDD

    2024
    Profesión peligro (2024) 1080p Latino-CMHDD

    2h 6m 2024

    Descargar Profesión peligro (2024) 1080p Latino-CMHDD. Es un doble de acción, y al igual que todos...

    Director: Paul Barry

    Género: Acción

    Actores: Zara Michales

  • True Lies (1994) REMUX 1080p Latino – CMHDD

    True Lies (1994) REMUX 1080p Latino – CMHDD

    1994
    True Lies (1994) REMUX 1080p Latino – CMHDD

    2h 21m 1994

    El agente especial Harry Tasker mantiene una doble vida. Harry habla seis idiomas, conoce y domina todas...

    Director: Sharron Reynolds-Enriquez

    Género: Acción

    Actores: William Shipman

  • True Lies (1994) REMUX 4K HDR Latino – CMHDD

    True Lies (1994) REMUX 4K HDR Latino – CMHDD

    1994
    True Lies (1994) REMUX 4K HDR Latino – CMHDD

    2h 21m 1994

    El agente especial Harry Tasker mantiene una doble vida. Harry habla seis idiomas, conoce y domina todas...

    Director: Sharron Reynolds-Enriquez

    Género: Acción

    Actores: William Shipman

descargar Van Helsing (2004) REMUX 4K HDR Latino – CMHDD 4K HDR 1080p gratis, Van Helsing (2004) REMUX 4K HDR Latino – CMHDD 4K HDR mega 1 link, Van Helsing (2004) REMUX 4K HDR Latino – CMHDD 4K HDR pelicula completa, descargar Van Helsing (2004) REMUX 4K HDR Latino – CMHDD 4K HDR gratis en mega.

Van Helsing (2004) REMUX 4K HDR Latino – CMHDD pelicula full hd, Van Helsing (2004) REMUX 4K HDR Latino – CMHDD mega latino, Van Helsing (2004) REMUX 4K HDR Latino – CMHDD 4k latino, Van Helsing (2004) REMUX 4K HDR Latino – CMHDD pelicula completa, Van Helsing (2004) REMUX 4K HDR Latino – CMHDD descargar gratis, descargar Van Helsing (2004) REMUX 4K HDR Latino – CMHDD pelicula latino, Van Helsing (2004) REMUX 4K HDR Latino – CMHDD 1 link mega, Van Helsing (2004) REMUX 4K HDR Latino – CMHDD 1 link google drive, Van Helsing (2004) REMUX 4K HDR Latino – CMHDD hd 1080p latino.
Comentarios 0