×

¿Problemas para descargar con Mozilla, EDGE? Deshabilita la opción "Abrir vinculos en una pestaña nueva" tal como lo muestra ésta imagen.

Van Helsing (2004) REMUX 1080p Latino – CMHDD

790 vistas

Información de Van Helsing (2004) REMUX 1080p Latino – CMHDD

Datos de la película

  • Calidad: Full 1080p
  • Audio: Español Latino DTS 5.1 BLURAY - Ingles DTS-HD 5.1 BLURAY
  • Subtitulos: Español Latino SRT- FORZADOS SRT
  • Resolución: 1920x1080p
  • Formato: MKV
  • Codec: H.264
  • Encoder: Dracarys
  • Mediainfo: Clic para Mostrar Datos Ver
  • Format                      : Matroska
    Format version              : Version 4
    File size                   : 29.6 GiB
    Duration                    : 2 h 11 min
    Overall bit rate mode       : Variable
    Overall bit rate            : 32.2 Mb/s
    Movie name                  : Van Helsing (2004) REMUX 1080p Latino CMHDD
    Encoded date                : UTC 2024-07-06 01:24:21
    Writing application         : mkvmerge v47.0.0 ('Black Flag') 64-bit
    Writing library             : libebml v1.3.10 + libmatroska v1.5.2

    Video
    ID                          : 1
    Format                      : AVC
    Format/Info                 : Advanced Video Codec
    Format profile              : High@L4.1
    Format settings             : CABAC / 4 Ref Frames
    Format settings, CABAC      : Yes
    Format settings, Reference  : 4 frames
    Codec ID                    : V_MPEG4/ISO/AVC
    Duration                    : 2 h 11 min
    Bit rate mode               : Variable
    Bit rate                    : 26.9 Mb/s
    Maximum bit rate            : 35.0 Mb/s
    Width                       : 1 920 pixels
    Height                      : 1 080 pixels
    Display aspect ratio        : 16:9
    Frame rate mode             : Constant
    Frame rate                  : 23.976 (24000/1001) FPS
    Color space                 : YUV
    Chroma subsampling          : 4:2:0
    Bit depth                   : 8 bits
    Scan type                   : Progressive
    Bits/(Pixel*Frame)          : 0.541
    Stream size                 : 24.7 GiB (83%)
    Default                     : Yes
    Forced                      : No
    Color range                 : Limited
    Color primaries             : BT.709
    Transfer characteristics    : BT.709
    Matrix coefficients         : BT.709

    Audio #1
    ID                          : 2
    Format                      : DTS
    Format/Info                 : Digital Theater Systems
    Codec ID                    : A_DTS
    Duration                    : 2 h 11 min
    Bit rate mode               : Constant
    Bit rate                    : 768 kb/s
    Channel(s)                  : 6 channels
    Channel layout              : C L R Ls Rs LFE
    Sampling rate               : 48.0 kHz
    Frame rate                  : 93.750 FPS (512 SPF)
    Bit depth                   : 24 bits
    Compression mode            : Lossy
    Stream size                 : 723 MiB (2%)
    Language                    : Spanish
    Default                     : Yes
    Forced                      : Yes

    Audio #2
    ID                          : 3
    Format                      : DTS XLL
    Format/Info                 : Digital Theater Systems
    Commercial name             : DTS-HD Master Audio
    Codec ID                    : A_DTS
    Duration                    : 2 h 11 min
    Bit rate mode               : Variable
    Bit rate                    : 4 566 kb/s
    Channel(s)                  : 6 channels
    Channel layout              : C L R Ls Rs LFE
    Sampling rate               : 48.0 kHz
    Frame rate                  : 93.750 FPS (512 SPF)
    Bit depth                   : 24 bits
    Compression mode            : Lossless
    Stream size                 : 4.19 GiB (14%)
    Language                    : English
    Default                     : No
    Forced                      : No

    Text #1
    ID                          : 4
    Format                      : UTF-8
    Codec ID                    : S_TEXT/UTF8
    Codec ID/Info               : UTF-8 Plain Text
    Duration                    : 2 h 1 min
    Bit rate                    : 0 b/s
    Count of elements           : 10
    Stream size                 : 192 Bytes (0%)
    Title                       : Forzados SRT
    Language                    : Spanish
    Default                     : Yes
    Forced                      : Yes

    Text #2
    ID                          : 5
    Format                      : UTF-8
    Codec ID                    : S_TEXT/UTF8
    Codec ID/Info               : UTF-8 Plain Text
    Duration                    : 1 h 58 min
    Bit rate                    : 38 b/s
    Count of elements           : 1059
    Stream size                 : 33.1 KiB (0%)
    Title                       : Completos SRT
    Language                    : Spanish
    Default                     : No
    Forced                      : No

    Text #3
    ID                          : 6
    Format                      : PGS
    Muxing mode                 : zlib
    Codec ID                    : S_HDMV/PGS
    Codec ID/Info               : Picture based subtitle format used on BDs/HD-DVDs
    Duration                    : 2 h 1 min
    Bit rate                    : 162 b/s
    Count of elements           : 20
    Stream size                 : 145 KiB (0%)
    Title                       : Forzados PGS
    Language                    : Spanish
    Default                     : No
    Forced                      : No

    Text #4
    ID                          : 7
    Format                      : PGS
    Muxing mode                 : zlib
    Codec ID                    : S_HDMV/PGS
    Codec ID/Info               : Picture based subtitle format used on BDs/HD-DVDs
    Duration                    : 2 h 1 min
    Bit rate                    : 21.0 kb/s
    Count of elements           : 1874
    Stream size                 : 18.2 MiB (0%)
    Title                       : Completos PGS
    Language                    : Spanish
    Default                     : No
    Forced                      : No

     

  • Peso: 29.6 GiB

Sinopsis

Descargar Van Helsing (2004) REMUX 1080p Latino. Siglo XIX. En medio de los montes de los Cárpatos está la misteriosa y mítica Transilvania, donde el mal siempre está presente, el peligro aparece cuando el sol se pone… y donde toman forma los monstruos que habitan las pesadillas de los hombres.

Ficha técnica

Video trailer de la película

Enlaces de descarga

Rip de Bluray

Descargar Van Helsing (2004) REMUX 1080p Latino – CMHDD




Aportes de DPeliculasHDmega la pass es:dpeliculashdmega.org Aportes de CinemaniaHD la pass es:cinemaniahdd.com Aportes recientes:cinemaniahdd.net
Guardado en : Acción , Aventura , Remux , Terror

Películas relacionadas

descargar Van Helsing (2004) REMUX 1080p Latino – CMHDD Full 1080p 1080p gratis, Van Helsing (2004) REMUX 1080p Latino – CMHDD Full 1080p mega 1 link, Van Helsing (2004) REMUX 1080p Latino – CMHDD Full 1080p pelicula completa, descargar Van Helsing (2004) REMUX 1080p Latino – CMHDD Full 1080p gratis en mega.

Van Helsing (2004) REMUX 1080p Latino – CMHDD pelicula full hd, Van Helsing (2004) REMUX 1080p Latino – CMHDD mega latino, Van Helsing (2004) REMUX 1080p Latino – CMHDD 4k latino, Van Helsing (2004) REMUX 1080p Latino – CMHDD pelicula completa, Van Helsing (2004) REMUX 1080p Latino – CMHDD descargar gratis, descargar Van Helsing (2004) REMUX 1080p Latino – CMHDD pelicula latino, Van Helsing (2004) REMUX 1080p Latino – CMHDD 1 link mega, Van Helsing (2004) REMUX 1080p Latino – CMHDD 1 link google drive, Van Helsing (2004) REMUX 1080p Latino – CMHDD hd 1080p latino.
Comentarios 1