×

¿Problemas para descargar con Mozilla, EDGE? Deshabilita la opción "Abrir vinculos en una pestaña nueva" tal como lo muestra ésta imagen.

Vampire Academy (2022) Primera Temporada PCOK WEB-DL 1080p Latino

65 vistas

Información de Vampire Academy (2022) Primera Temporada PCOK WEB-DL 1080p Latino

Datos de la película

  • Calidad: 1080p
  • Audio: Español Latino AC3 2.0 WEB-DL - Ingles AC3 5.1 WEB-DL
  • Subtitulos: Español Latino SRT - Ingles SRT
  • Resolución: 1920x1080
  • Formato: MKV
  • Codec: H.264
  • Encoder: cinemaniahdd
  • Mediainfo: Clic para Mostrar Datos Ver
  • Vampire Academy T01E01 PCOK WEB-DL 1080p Latino [CNMNHDD].mkv
    Format                      : Matroska
    Format version              : Version 4
    File size                   : 2.54 GiB
    Duration                    : 47 min 20 s
    Overall bit rate            : 7 692 kb/s
    Movie name                  : Vampire Academy S01E01 - Pilot [1080p] - CinemaniaHDD.Net
    Encoded date                : UTC 2022-10-16 02:28:18
    Writing application         : mkvmerge v59.0.0 ('Shining Star') 64-bit
    Writing library             : libebml v1.4.2 + libmatroska v1.6.4

    Video
    ID                          : 1
    Format                      : AVC
    Format/Info                 : Advanced Video Codec
    Format profile              : High@L4
    Format settings             : CABAC / 4 Ref Frames
    Format settings, CABAC      : Yes
    Format settings, Reference  : 4 frames
    Codec ID                    : V_MPEG4/ISO/AVC
    Duration                    : 47 min 20 s
    Bit rate                    : 7 402 kb/s
    Nominal bit rate            : 7 814 kb/s
    Width                       : 1 920 pixels
    Height                      : 1 080 pixels
    Display aspect ratio        : 16:9
    Frame rate mode             : Constant
    Frame rate                  : 23.976 (24000/1001) FPS
    Color space                 : YUV
    Chroma subsampling          : 4:2:0
    Bit depth                   : 8 bits
    Scan type                   : Progressive
    Bits/(Pixel*Frame)          : 0.149
    Stream size                 : 2.45 GiB (96%)
    Title                       : CinemaniaHDD
    Writing library             : x264 core 164 r3095 baee400
    Encoding settings           : cabac=1 / ref=4 / deblock=1:0:0 / analyse=0x3:0x113 / me=umh / subme=7 / psy=1 / psy_rd=0.00:0.00 / mixed_ref=1 / me_range=16 / chroma_me=1 / trellis=1 / 8x8dct=1 / cqm=0 / deadzone=21,11 / fast_pskip=0 / chroma_qp_offset=0 / threads=34 / lookahead_threads=5 / sliced_threads=0 / nr=0 / decimate=1 / interlaced=0 / bluray_compat=0 / constrained_intra=0 / bframes=16 / b_pyramid=2 / b_adapt=1 / b_bias=0 / direct=1 / weightb=1 / open_gop=0 / weightp=2 / keyint=48 / keyint_min=4 / scenecut=0 / intra_refresh=0 / rc_lookahead=40 / rc=2pass / mbtree=1 / bitrate=7814 / ratetol=1.0 / qcomp=0.60 / qpmin=10 / qpmax=51 / qpstep=4 / cplxblur=20.0 / qblur=0.5 / vbv_maxrate=7814 / vbv_bufsize=7814 / nal_hrd=none / filler=0 / ip_ratio=1.41 / aq=1:1.00
    Default                     : Yes
    Forced                      : No
    Color range                 : Limited
    Color primaries             : BT.709
    Transfer characteristics    : BT.709
    Matrix coefficients         : BT.709

    Audio #1
    ID                          : 2
    Format                      : AAC LC
    Format/Info                 : Advanced Audio Codec Low Complexity
    Codec ID                    : A_AAC-2
    Duration                    : 47 min 20 s
    Bit rate                    : 96.0 kb/s
    Channel(s)                  : 2 channels
    Channel layout              : L R
    Sampling rate               : 48.0 kHz
    Frame rate                  : 46.875 FPS (1024 SPF)
    Compression mode            : Lossy
    Stream size                 : 32.5 MiB (1%)
    Title                       : Español latino [CinemaniaHDD]
    Language                    : Spanish
    Default                     : No
    Forced                      : No

    Audio #2
    ID                          : 3
    Format                      : E-AC-3
    Format/Info                 : Enhanced AC-3
    Commercial name             : Dolby Digital Plus
    Codec ID                    : A_EAC3
    Duration                    : 47 min 20 s
    Bit rate mode               : Constant
    Bit rate                    : 192 kb/s
    Channel(s)                  : 6 channels
    Channel layout              : L R C LFE Ls Rs
    Sampling rate               : 48.0 kHz
    Frame rate                  : 31.250 FPS (1536 SPF)
    Compression mode            : Lossy
    Stream size                 : 65.0 MiB (2%)
    Title                       : Inglés [CinemaniaHDD]
    Language                    : English
    Service kind                : Complete Main
    Default                     : No
    Forced                      : No

    Text #1
    ID                          : 4
    Format                      : UTF-8
    Codec ID                    : S_TEXT/UTF8
    Codec ID/Info               : UTF-8 Plain Text
    Duration                    : 45 min 31 s
    Bit rate                    : 57 b/s
    Count of elements           : 724
    Stream size                 : 19.2 KiB (0%)
    Title                       : Español latino (SDH) [CinemaniaHDD]
    Language                    : Spanish
    Default                     : No
    Forced                      : No

    Text #2
    ID                          : 5
    Format                      : UTF-8
    Codec ID                    : S_TEXT/UTF8
    Codec ID/Info               : UTF-8 Plain Text
    Duration                    : 47 min 7 s
    Bit rate                    : 61 b/s
    Count of elements           : 804
    Stream size                 : 21.1 KiB (0%)
    Title                       : Inglés (SDH) [CinemaniaHDD]
    Language                    : English
    Default                     : No
    Forced                      : No

     

  • Peso: 2.54 GiB Aprox ---- 27 GiB in 10 Chapters.

Sinopsis

En un mundo de privilegios y glamour, la amistad de dos mujeres jóvenes trasciende sus sorprendentemente diferentes clases mientras se preparan para completar su educación e ingresar a la sociedad real de vampiros. Basado en las novelas para adultos jóvenes de Richelle Mead.

 

Ficha técnica

Video trailer de la película

Enlaces de descarga

Rip de Bluray

Descargar Vampire Academy (2022) Primera Temporada PCOK WEB-DL 1080p Latino




Aportes de DPeliculasHDmega la pass es:dpeliculashdmega.org Aportes de CinemaniaHD la pass es:cinemaniahdd.com
Guardado en : Drama , Sci-Fi & Fantasy , Series

Películas relacionadas

descargar Vampire Academy (2022) Primera Temporada PCOK WEB-DL 1080p Latino 1080p 1080p gratis, Vampire Academy (2022) Primera Temporada PCOK WEB-DL 1080p Latino 1080p mega 1 link, Vampire Academy (2022) Primera Temporada PCOK WEB-DL 1080p Latino 1080p serie completa, descargar Vampire Academy (2022) Primera Temporada PCOK WEB-DL 1080p Latino 1080p gratis en mega.

Vampire Academy (2022) Primera Temporada PCOK WEB-DL 1080p Latino pelicula full hd, Vampire Academy (2022) Primera Temporada PCOK WEB-DL 1080p Latino mega latino, Vampire Academy (2022) Primera Temporada PCOK WEB-DL 1080p Latino 4k latino, Vampire Academy (2022) Primera Temporada PCOK WEB-DL 1080p Latino pelicula completa, Vampire Academy (2022) Primera Temporada PCOK WEB-DL 1080p Latino descargar gratis, descargar Vampire Academy (2022) Primera Temporada PCOK WEB-DL 1080p Latino pelicula latino, Vampire Academy (2022) Primera Temporada PCOK WEB-DL 1080p Latino 1 link mega, Vampire Academy (2022) Primera Temporada PCOK WEB-DL 1080p Latino 1 link google drive, Vampire Academy (2022) Primera Temporada PCOK WEB-DL 1080p Latino hd 1080p latino.
Comentarios 0