Valley of Bones (2017) AMZN WEB-DL 1080p Latino

812 vistas
1 estrella2 estrellas3 estrellas4 estrellas5 estrellas (2 votos, promedio: 3,00 de 5)
Cargando…

Información de Valley of Bones (2017) AMZN WEB-DL 1080p Latino

Datos de la película

  • Calidad: WEBDL
  • Audio: Español Latino AC3 2.0 Capturado- Ingles AC3 5.1 AMAZON
  • Subtitulos: Español Latino SRT - Ingles SRT
  • Resolución: 1920x800
  • Formato: MKV
  • Codec: H.264
  • Encoder: cinemaniahdd
  • Mediainfo: Clic para Mostrar Datos Ver
  • Valley of Bones (2017) AMZN WEB-DL 1080p Latino.mkv
    Format                      : Matroska
    Format version              : Version 4
    File size                   : 2.97 GiB
    Duration                    : 1 h 30 min
    Overall bit rate mode       : Variable
    Overall bit rate            : 4 721 kb/s
    Movie name                  : CinemaniaHDD.Net
    Encoded date                : UTC 2019-03-14 21:36:40
    Writing application         : mkvmerge v22.0.0 ('At The End Of The World') 64-bit
    Writing library             : libebml v1.3.5 + libmatroska v1.4.8

    Video
    ID                          : 1
    Format                      : AVC
    Format/Info                 : Advanced Video Codec
    Format profile              : [email protected]
    Format settings             : CABAC / 4 Ref Frames
    Format settings, CABAC      : Yes
    Format settings, ReFrames   : 4 frames
    Codec ID                    : V_MPEG4/ISO/AVC
    Duration                    : 1 h 30 min
    Bit rate mode               : Variable
    Bit rate                    : 3 822 kb/s
    Maximum bit rate            : 15.0 Mb/s
    Width                       : 1 920 pixels
    Height                      : 800 pixels
    Display aspect ratio        : 2.40:1
    Frame rate mode             : Constant
    Frame rate                  : 23.976 (24000/1001) FPS
    Color space                 : YUV
    Chroma subsampling          : 4:2:0
    Bit depth                   : 8 bits
    Scan type                   : Progressive
    Bits/(Pixel*Frame)          : 0.104
    Stream size                 : 2.41 GiB (81%)
    Title                       : CinemaniaHDD.Net
    Default                     : Yes
    Forced                      : No
    Color range                 : Limited
    Color primaries             : BT.709
    Transfer characteristics    : BT.709
    Matrix coefficients         : BT.709

    Audio #1
    ID                          : 2
    Format                      : AC-3
    Format/Info                 : Audio Coding 3
    Commercial name             : Dolby Digital
    Codec ID                    : A_AC3
    Duration                    : 1 h 30 min
    Bit rate mode               : Constant
    Bit rate                    : 256 kb/s
    Channel(s)                  : 2 channels
    Channel layout              : L R
    Sampling rate               : 48.0 kHz
    Frame rate                  : 31.250 FPS (1536 SPF)
    Bit depth                   : 16 bits
    Compression mode            : Lossy
    Stream size                 : 165 MiB (5%)
    Title                       : CinemaniaHDD.Net
    Language                    : Spanish
    Service kind                : Complete Main
    Default                     : Yes
    Forced                      : No

    Audio #2
    ID                          : 3
    Format                      : AC-3
    Format/Info                 : Audio Coding 3
    Commercial name             : Dolby Digital
    Codec ID                    : A_AC3
    Duration                    : 1 h 30 min
    Bit rate mode               : Constant
    Bit rate                    : 640 kb/s
    Channel(s)                  : 6 channels
    Channel layout              : L R C LFE Ls Rs
    Sampling rate               : 48.0 kHz
    Frame rate                  : 31.250 FPS (1536 SPF)
    Bit depth                   : 16 bits
    Compression mode            : Lossy
    Stream size                 : 413 MiB (14%)
    Title                       : CinemaniaHDD.Net
    Service kind                : Complete Main
    Default                     : No
    Forced                      : No

    Text #1
    ID                          : 4
    Format                      : UTF-8
    Codec ID                    : S_TEXT/UTF8
    Codec ID/Info               : UTF-8 Plain Text
    Duration                    : 1 h 29 min
    Bit rate                    : 42 b/s
    Count of elements           : 905
    Stream size                 : 27.7 KiB (0%)
    Title                       : CinemaniaHDD.Net
    Language                    : Spanish
    Default                     : No
    Forced                      : No

    Text #2
    ID                          : 5
    Format                      : UTF-8
    Codec ID                    : S_TEXT/UTF8
    Codec ID/Info               : UTF-8 Plain Text
    Duration                    : 1 h 25 min
    Bit rate                    : 47 b/s
    Count of elements           : 1083
    Stream size                 : 29.8 KiB (0%)
    Title                       : SDH - CinemaniaHDD.Net
    Language                    : English
    Default                     : No
    Forced                      : No

    Text #3
    ID                          : 6
    Format                      : UTF-8
    Codec ID                    : S_TEXT/UTF8
    Codec ID/Info               : UTF-8 Plain Text
    Duration                    : 1 h 24 min
    Bit rate                    : 44 b/s
    Count of elements           : 943
    Stream size                 : 27.5 KiB (0%)
    Language                    : English
    Default                     : No
    Forced                      : No

  • Peso: 2.97 GiB

Sinopsis

Anna, madre soltera y paleontóloga, y McCoy, un drogadicto que trabaja con petróleo, forman una unión peculiar en la que ambos intentan resarcirse de su pasado criminal. Sus esperanzas se depositan en el descubrimiento de un fósil que podría valer millones. Anna podría estabilizar su carrera y mejorar su relación con su hijo, mientras que McCoy podría saldar su deuda con el jefe de un cártel y salvar a su propia hija. La desconfianza surgirá entre los dos debido a esa diferencia de motivaciones.

Ficha técnica

  • Titulo original: Valley of Bones
  • Fecha de lanzamiento: 01-09-2017 (United States of America)
  • Director: Dan Glaser
  • Género: Crimen, Suspense, Western
  • Puntuación: 3.0 2 votos
  • Duración:
    1h 30m

Video trailer de la película

Enlaces de descarga

Rip de Bluray

Descargar Valley of Bones (2017) AMZN WEB-DL 1080p Latino




Aportes de DPeliculasHDmega la pass es:dpeliculashdmega.org Aportes de CinemaniaHD la pass es:cinemaniahdd.com
Guardado en : Crimen , Suspense , Western

Películas relacionadas

  • The Mule (2018) 1080p Latino

    2018
    The Mule (2018) 1080p Latino

    0.0 1h 56m 2018

    A Earl Stone (Eastwood), un octogenario que está en quiebra, solo, y que se enfrenta a la ejecución...

    Director: Clint Eastwood

    Género: Crimen

    Actores: Victor Rasuk

  • The mule (2018) WEB-DL 1080p Latino

    2018
    The mule (2018) WEB-DL 1080p Latino

    0.0 1h 56m 2018

    A Earl Stone (Eastwood), un octogenario que está en quiebra, solo, y que se enfrenta a la ejecución...

    Director: Clint Eastwood

    Género: Crimen

    Actores: Victor Rasuk

  • Robin Hood (2018) 4K UHD HDR Latino

    2018
    Robin Hood (2018) 4K UHD HDR Latino

    0.0 1h 56m 2018

    Descargar Robin Hood (2018) 4K UHD HDR Latino, Mega, Google Drive. Cuando el joven Robin Hood (Taron...

    Director: Otto Bathurst

    Género: 4K HDR

    Actores: Yasen Atour

  • FBI (2018) Temporada 1 1080p WEB-DL Latino

    2018
    FBI (2018) Temporada 1 1080p WEB-DL Latino

    0.0 0h 43m 2018

    Serie de TV (2018-). Drama vertiginoso sobre el funcionamiento interno de la oficina de Nueva York del...

    Director: Dick Wolf

    Género: Crimen

    Actores: Zeeko Zaki

  • El último Sharknado: Ya era hora (2018) 1080p Latino

    2018
    El último Sharknado: Ya era hora (2018) 1080p Latino

    3.0 1h 30m 2018

    Todo está perdido, ¿o no? Fin desbloquea el poder de viajar en el tiempo a través de los SHARKNADOS...

    Director: Anthony C. Ferrante

    Género: Acción

    Actores: Vivica A. Fox

Comentarios 0