Valerian And The City of a Thousand Planets (2017) REMUX 4K HDR Latino – CMHDD

37 vistas
1 estrella2 estrellas3 estrellas4 estrellas5 estrellas (Ninguna valoración todavía)
Cargando...

Información de Valerian And The City of a Thousand Planets (2017) REMUX 4K HDR Latino – CMHDD

Datos de la película

  • Calidad: 4K HDR
  • Audio: Español Latino AC3 2.0
  • Subtitulos: Español Latino PGS
  • Resolución: 3840x2160p
  • Formato: MKV
  • Codec: H.264
  • Encoder: Dracarys
  • Mediainfo: Clic para Mostrar Datos Ver
  • Format                      : Matroska
    Format version              : Version 4
    File size                   : 48.0 GiB
    Duration                    : 2 h 17 min
    Overall bit rate mode       : Variable
    Overall bit rate            : 50.2 Mb/s
    Movie name                  : Valerian And The City of a Thousand Planets (2017) REMUX 4K HDR Latino - CMHDD
    Encoded date                : UTC 2021-08-01 04:34:37
    Writing application         : mkvmerge v56.1.0 ('My Friend') 64-bit
    Writing library             : libebml v1.4.2 + libmatroska v1.6.4
    Cover                       : Yes
    Attachments                 : cover.jpg

    Video
    ID                          : 1
    ID in the original source m : 4113 (0x1011)
    Format                      : HEVC
    Format/Info                 : High Efficiency Video Coding
    Format profile              : Main 10@L5.1@High
    HDR format                  : SMPTE ST 2086, HDR10 compatible
    Codec ID                    : V_MPEGH/ISO/HEVC
    Duration                    : 2 h 17 min
    Bit rate                    : 44.4 Mb/s
    Width                       : 3 840 pixels
    Height                      : 2 160 pixels
    Display aspect ratio        : 16:9
    Frame rate mode             : Constant
    Frame rate                  : 23.976 (24000/1001) FPS
    Color space                 : YUV
    Chroma subsampling          : 4:2:0 (Type 2)
    Bit depth                   : 10 bits
    Bits/(Pixel*Frame)          : 0.223
    Stream size                 : 42.5 GiB (88%)
    Default                     : Yes
    Forced                      : No
    Color range                 : Limited
    Color primaries             : BT.2020
    Transfer characteristics    : PQ
    Matrix coefficients         : BT.2020 non-constant
    Mastering display color pri : Display P3
    Mastering display luminance : min: 0.0050 cd/m2, max: 1000 cd/m2
    Maximum Content Light Level : 632 cd/m2
    Maximum Frame-Average Light : 298 cd/m2
    Original source medium      : Blu-ray

    Audio #1
    ID                          : 2
    ID in the original source m : 4352 (0x1100)
    Format                      : MLP FBA 16-ch
    Format/Info                 : Meridian Lossless Packing FBA with 16-channel presentation
    Commercial name             : Dolby TrueHD with Dolby Atmos
    Codec ID                    : A_TRUEHD
    Duration                    : 2 h 17 min
    Bit rate mode               : Variable
    Bit rate                    : 4 424 kb/s
    Maximum bit rate            : 7 089 kb/s
    Channel(s)                  : 8 channels
    Channel layout              : L R C LFE Ls Rs Lb Rb
    Sampling rate               : 48.0 kHz
    Frame rate                  : 1 200.000 FPS (40 SPF)
    Compression mode            : Lossless
    Stream size                 : 4.24 GiB (9%)
    Language                    : English
    Default                     : No
    Forced                      : No
    Original source medium      : Blu-ray
    Number of dynamic objects   : 15
    Bed channel count           : 1 channel
    Bed channel configuration   : LFE

    Audio #2
    ID                          : 3
    ID in the original source m : 4352 (0x1100)
    Format                      : AC-3
    Format/Info                 : Audio Coding 3
    Commercial name             : Dolby Digital
    Format settings             : Dolby Surround EX
    Codec ID                    : A_AC3
    Duration                    : 2 h 17 min
    Bit rate mode               : Constant
    Bit rate                    : 640 kb/s
    Channel(s)                  : 6 channels
    Channel layout              : L R C LFE Ls Rs
    Sampling rate               : 48.0 kHz
    Frame rate                  : 31.250 FPS (1536 SPF)
    Compression mode            : Lossy
    Stream size                 : 627 MiB (1%)
    Language                    : English
    Service kind                : Complete Main
    Default                     : No
    Forced                      : No
    Original source medium      : Blu-ray

    Audio #3
    ID                          : 4
    ID in the original source m : 4354 (0x1102)
    Format                      : AC-3
    Format/Info                 : Audio Coding 3
    Commercial name             : Dolby Digital
    Codec ID                    : A_AC3
    Duration                    : 2 h 17 min
    Bit rate mode               : Constant
    Bit rate                    : 640 kb/s
    Channel(s)                  : 6 channels
    Channel layout              : L R C LFE Ls Rs
    Sampling rate               : 48.0 kHz
    Frame rate                  : 31.250 FPS (1536 SPF)
    Compression mode            : Lossy
    Stream size                 : 627 MiB (1%)
    Language                    : Spanish
    Service kind                : Complete Main
    Default                     : Yes
    Forced                      : No
    Original source medium      : Blu-ray

    Text #1
    ID                          : 5
    ID in the original source m : 4769 (0x12A1)
    Format                      : PGS
    Muxing mode                 : zlib
    Codec ID                    : S_HDMV/PGS
    Codec ID/Info               : Picture based subtitle format used on BDs/HD-DVDs
    Duration                    : 2 h 8 min
    Bit rate                    : 36.2 kb/s
    Count of elements           : 3048
    Stream size                 : 33.2 MiB (0%)
    Language                    : Spanish
    Default                     : No
    Forced                      : No
    Original source medium      : Blu-ray

    Text #2
    ID                          : 6
    ID in the original source m : 4771 (0x12A3)
    Format                      : PGS
    Muxing mode                 : zlib
    Codec ID                    : S_HDMV/PGS
    Codec ID/Info               : Picture based subtitle format used on BDs/HD-DVDs
    Duration                    : 2 h 8 min
    Bit rate                    : 525 b/s
    Count of elements           : 50
    Stream size                 : 494 KiB (0%)
    Language                    : Spanish
    Default                     : Yes
    Forced                      : No
    Original source medium      : Blu-ray

    Menu
    00:00:00.000                : Chapter 01
    00:12:36.714                : Chapter 02
    00:17:30.591                : Chapter 03
    00:23:36.790                : Chapter 04
    00:32:46.839                : Chapter 05
    00:41:20.144                : Chapter 06
    00:47:16.667                : Chapter 07
    00:56:13.411                : Chapter 08
    01:04:26.696                : Chapter 09
    01:11:28.909                : Chapter 10
    01:20:26.071                : Chapter 11
    01:28:14.706                : Chapter 12
    01:35:54.915                : Chapter 13
    01:41:36.048                : Chapter 14
    01:53:38.853                : Chapter 15
    02:02:23.586                : Chapter 16

  • Peso: 48.0 GiB

Sinopsis

En el siglo XXVIII, Valerian y Laureline conforman un equipo de agentes especiales encargados de mantener el orden en todos los territorios humanos. Bajo el mando del Ministro de Defensa, los dos se embarcan en una misión a la asombrosa ciudad de Alpha, una metrópolis en constante expansión, donde especies provenientes de todo el universo han convergido durante siglos para compartir conocimientos, inteligencias y culturas. Un manto de misterio rodea a Alpha, una fuerza oscura que amenaza la pacífica existencia de la ciudad de los mil planetas, y Valerian y Laureline deben darse prisa para descubrir la amenaza y salvaguardar no sólo a Alfa, sino el futuro del universo.

Ficha técnica

Video trailer de la película

Enlaces de descarga

Rip de Bluray

Descargar Valerian And The City of a Thousand Planets (2017) REMUX 4K HDR Latino – CMHDD


Aportes de DPeliculasHDmega la pass es:dpeliculashdmega.org Aportes de CinemaniaHD la pass es:cinemaniahdd.com
Guardado en : Acción , Aventura , Ciencia ficción

Películas relacionadas

Valerian And The City of a Thousand Planets (2017) REMUX 4K HDR Latino – CMHDD pelicula full hd, Valerian And The City of a Thousand Planets (2017) REMUX 4K HDR Latino – CMHDD mega latino, Valerian And The City of a Thousand Planets (2017) REMUX 4K HDR Latino – CMHDD 4k latino, Valerian And The City of a Thousand Planets (2017) REMUX 4K HDR Latino – CMHDD pelicula completa, Valerian And The City of a Thousand Planets (2017) REMUX 4K HDR Latino – CMHDD descargar gratis, descargar Valerian And The City of a Thousand Planets (2017) REMUX 4K HDR Latino – CMHDD pelicula latino, Valerian And The City of a Thousand Planets (2017) REMUX 4K HDR Latino – CMHDD 1 link mega, Valerian And The City of a Thousand Planets (2017) REMUX 4K HDR Latino – CMHDD 1 link google drive, Valerian And The City of a Thousand Planets (2017) REMUX 4K HDR Latino – CMHDD hd 1080p latino.
Comentarios 2