×

¿Problemas para descargar con Mozilla, EDGE? Deshabilita la opción "Abrir vinculos en una pestaña nueva" tal como lo muestra ésta imagen.

Di­a de los Enamorados (2010) REMUX 1080p Latino

216 vistas

Información de Di­a de los Enamorados (2010) REMUX 1080p Latino

Datos de la película

  • Calidad: Full 1080p
  • Audio: Español Latino AC3 5.1 BLURAY - Ingles DTS 5.1 BLURAY
  • Subtitulos: Español Latino SRT - Ingles SRT
  • Resolución: 1920x1080p
  • Formato: MKV
  • Codec: H.264
  • Encoder: CinefiloCool
  • Mediainfo: Clic para Mostrar Datos Ver
  • Dia De Los Enamorados (2010) REMUX 1080p Latino-CMHDD.mkv
    Format                      : Matroska
    Format version              : Version 4
    File size                   : 18.0 GiB
    Duration                    : 2 h 4 min
    Overall bit rate mode       : Variable
    Overall bit rate            : 20.7 Mb/s
    Movie name                  : Valentine's Day (2010) CinemaniaHDD.Net
    Encoded date                : UTC 2020-12-27 08:07:58
    Writing application         : mkvmerge v51.0.0 ('I Wish') 64-bit
    Writing library             : libebml v1.4.0 + libmatroska v1.6.2
    Attachments                 : CINEMANIAHD.png

    Video
    ID                          : 1
    Format                      : VC-1
    Format profile              : Advanced@L3
    Codec ID                    : V_MS/VFW/FOURCC / WVC1
    Codec ID/Hint               : Microsoft
    Duration                    : 2 h 4 min
    Bit rate                    : 16.4 Mb/s
    Width                       : 1 920 pixels
    Height                      : 1 080 pixels
    Display aspect ratio        : 16:9
    Frame rate mode             : Constant
    Frame rate                  : 23.976 (24000/1001) FPS
    Color space                 : YUV
    Chroma subsampling          : 4:2:0
    Bit depth                   : 8 bits
    Scan type                   : Progressive
    Compression mode            : Lossy
    Bits/(Pixel*Frame)          : 0.330
    Stream size                 : 14.3 GiB (79%)
    Title                       : REMUX HD1080p [CinemaniaHDD]
    Language                    : English
    Default                     : Yes
    Forced                      : No

    Audio #1
    ID                          : 2
    Format                      : AC-3
    Format/Info                 : Audio Coding 3
    Commercial name             : Dolby Digital
    Codec ID                    : A_AC3
    Duration                    : 2 h 4 min
    Bit rate mode               : Constant
    Bit rate                    : 640 kb/s
    Channel(s)                  : 6 channels
    Channel layout              : L R C LFE Ls Rs
    Sampling rate               : 48.0 kHz
    Frame rate                  : 31.250 FPS (1536 SPF)
    Compression mode            : Lossy
    Stream size                 : 571 MiB (3%)
    Title                       : Español Latino [CinemaniaHDD]
    Language                    : Spanish
    Service kind                : Complete Main
    Default                     : Yes
    Forced                      : No

    Audio #2
    ID                          : 3
    Format                      : DTS XLL
    Format/Info                 : Digital Theater Systems
    Commercial name             : DTS-HD Master Audio
    Codec ID                    : A_DTS
    Duration                    : 2 h 4 min
    Bit rate mode               : Variable
    Bit rate                    : 3 623 kb/s
    Channel(s)                  : 6 channels
    Channel layout              : C L R Ls Rs LFE
    Sampling rate               : 48.0 kHz
    Frame rate                  : 93.750 FPS (512 SPF)
    Bit depth                   : 24 bits
    Compression mode            : Lossless
    Stream size                 : 3.15 GiB (18%)
    Title                       : Ingles [CinemaniaHDD]
    Language                    : English
    Default                     : No
    Forced                      : No

    Text #1
    ID                          : 4
    Format                      : UTF-8
    Codec ID                    : S_TEXT/UTF8
    Codec ID/Info               : UTF-8 Plain Text
    Duration                    : 1 h 51 min
    Bit rate                    : 0 b/s
    Count of elements           : 24
    Stream size                 : 579 Bytes (0%)
    Title                       : Forzados-SRT [CinemaniaHDD]
    Language                    : Spanish
    Default                     : Yes
    Forced                      : No

    Text #2
    ID                          : 5
    Format                      : UTF-8
    Codec ID                    : S_TEXT/UTF8
    Codec ID/Info               : UTF-8 Plain Text
    Duration                    : 2 h 3 min
    Bit rate                    : 75 b/s
    Count of elements           : 2006
    Stream size                 : 68.7 KiB (0%)
    Title                       : Español-SRT [CinemaniaHDD]
    Language                    : Spanish
    Default                     : No
    Forced                      : No

    Text #3
    ID                          : 6
    Format                      : UTF-8
    Codec ID                    : S_TEXT/UTF8
    Codec ID/Info               : UTF-8 Plain Text
    Duration                    : 2 h 4 min
    Bit rate                    : 82 b/s
    Count of elements           : 1855
    Stream size                 : 75.0 KiB (0%)
    Title                       : Ingles-SRT [CinemaniaHDD]
    Language                    : English
    Default                     : No
    Forced                      : No

    Menu
    00:00:00.000                : en:00:00:00.000
    00:05:04.762                : en:00:05:04.762
    00:10:51.901                : en:00:10:51.901
    00:16:21.980                : en:00:16:21.980
    00:20:18.508                : en:00:20:18.508
    00:23:51.179                : en:00:23:51.179
    00:27:53.171                : en:00:27:53.171
    00:34:38.993                : en:00:34:38.993
    00:39:51.097                : en:00:39:51.097
    00:43:37.656                : en:00:43:37.656
    00:48:18.687                : en:00:48:18.687
    00:53:10.103                : en:00:53:10.103
    00:57:15.014                : en:00:57:15.014
    01:03:29.722                : en:01:03:29.722
    01:09:49.894                : en:01:09:49.894
    01:12:32.723                : en:01:12:32.723
    01:17:08.415                : en:01:17:08.415
    01:21:24.087                : en:01:21:24.087
    01:24:02.328                : en:01:24:02.328
    01:27:28.952                : en:01:27:28.952
    01:30:30.591                : en:01:30:30.591
    01:35:06.992                : en:01:35:06.992
    01:39:00.351                : en:01:39:00.351
    01:41:23.660                : en:01:41:23.660
    01:44:39.856                : en:01:44:39.856
    01:49:47.247                : en:01:49:47.247
    01:53:52.742                : en:01:53:52.742
    01:58:07.079                : en:01:58:07.079

  • Peso: 18.0 GiB

Sinopsis

Descargar Di­a de los Enamorados (2010) REMUX 1080p Latino. El film consta de varias historias que suceden el día de San Valentín: una oficial del ejército que vuela desde Iraq a Los Ángeles, coincide en el avión con alguien que debe resolver algunos asuntos; el dueño de una floristería le propone matrimonio a su novia, aunque, en realidad, está enamorado de una amiga, cuyo novio está casado; una jubilada le confiesa a su marido que mantuvo un largo romance con otra persona; una mujer que trabaja en la agencia de talentos más importante de la ciudad sale con un empleado de Correos. Y, finalmente, una desafortunada publicista resulta que no tiene con quién quedar el día de San Valentín.

Ficha técnica

Video trailer de la película

Enlaces de descarga

Rip de Bluray

Descargar Di­a de los Enamorados (2010) REMUX 1080p Latino




Aportes de DPeliculasHDmega la pass es:dpeliculashdmega.org Aportes de CinemaniaHD la pass es:cinemaniahdd.com
Guardado en : Comedia , Remux , Romance

Películas relacionadas

  • Un mundo extraño (2022) REMUX 1080p Latino

    Un mundo extraño (2022) REMUX 1080p Latino

    2022
    Un mundo extraño (2022) REMUX 1080p Latino

    1h 42m 2022

    Descargar Un mundo extraño (2022) REMUX 1080p. Un viaje a una tierra inexplorada y traicionera en la...

    Director: Thai Bettistea

    Género: Animación

    Actores: Reed Buck

  • Corazón de tinta (2008) REMUX 1080p Latino

    Corazón de tinta (2008) REMUX 1080p Latino

    2008
    Corazón de tinta (2008) REMUX 1080p Latino

    1h 46m 2008

    Descargar Corazón de tinta (2008) REMUX 1080p Latino. Mortimer “Mo” Folchart y su hija de 12 años,...

    Director: Sharon Mansfield

    Género: Aventura

    Actores: Tereza Srbová

  • Juego de espías (2001) REMUX 1080p Latino

    Juego de espías (2001) REMUX 1080p Latino

    2001
    Juego de espías (2001) REMUX 1080p Latino

    1h 55m 2001

    Descargar Juego de espías (2001) REMUX 1080p Latino. El día de su jubilación, el veterano agente de...

    Director: Tony Scott

    Género: Acción

    Actores: Zsolt Zágoni

descargar Di­a de los Enamorados (2010) REMUX 1080p Latino Full 1080p 1080p gratis, Di­a de los Enamorados (2010) REMUX 1080p Latino Full 1080p mega 1 link, Di­a de los Enamorados (2010) REMUX 1080p Latino Full 1080p pelicula completa, descargar Di­a de los Enamorados (2010) REMUX 1080p Latino Full 1080p gratis en mega.

Di­a de los Enamorados (2010) REMUX 1080p Latino pelicula full hd, Di­a de los Enamorados (2010) REMUX 1080p Latino mega latino, Di­a de los Enamorados (2010) REMUX 1080p Latino 4k latino, Di­a de los Enamorados (2010) REMUX 1080p Latino pelicula completa, Di­a de los Enamorados (2010) REMUX 1080p Latino descargar gratis, descargar Di­a de los Enamorados (2010) REMUX 1080p Latino pelicula latino, Di­a de los Enamorados (2010) REMUX 1080p Latino 1 link mega, Di­a de los Enamorados (2010) REMUX 1080p Latino 1 link google drive, Di­a de los Enamorados (2010) REMUX 1080p Latino hd 1080p latino.
Comentarios 0