×

¿Problemas para descargar con Mozilla, EDGE? Deshabilita la opción "Abrir vinculos en una pestaña nueva" tal como lo muestra ésta imagen.

Di­a de los Enamorados (2010) Full HD 1080p Latino

303 vistas

Información de Di­a de los Enamorados (2010) Full HD 1080p Latino

Datos de la película

  • Calidad: Full 1080p
  • Audio: Español Latino AC3 5.1 BLURAY - Ingles DTS 5.1 BLURAY
  • Subtitulos: Español Latino SRT - Ingles SRT
  • Resolución: 1920x1080p
  • Formato: MKV
  • Codec: H.264
  • Encoder: CinefiloCool
  • Mediainfo: Clic para Mostrar Datos Ver
  • Dia De Los Enamorados (2010) Full HD 1080p Latino-CMHDD.mkv
    Format                      : Matroska
    Format version              : Version 4
    File size                   : 8.61 GiB
    Duration                    : 2 h 4 min
    Overall bit rate            : 9 886 kb/s
    Movie name                  : Valentine's Day (2010) CinemaniaHDD.Net
    Encoded date                : UTC 2021-02-04 01:03:17
    Writing application         : mkvmerge v51.0.0 ('I Wish') 64-bit
    Writing library             : libebml v1.4.0 + libmatroska v1.6.2
    Attachments                 : CINEMANIAHD.png

    Video
    ID                          : 1
    Format                      : AVC
    Format/Info                 : Advanced Video Codec
    Format profile              : High@L4.1
    Format settings             : CABAC / 4 Ref Frames
    Format settings, CABAC      : Yes
    Format settings, Reference  : 4 frames
    Codec ID                    : V_MPEG4/ISO/AVC
    Duration                    : 2 h 4 min
    Bit rate                    : 7 735 kb/s
    Width                       : 1 920 pixels
    Height                      : 1 080 pixels
    Display aspect ratio        : 16:9
    Frame rate mode             : Constant
    Frame rate                  : 23.976 (24000/1001) FPS
    Color space                 : YUV
    Chroma subsampling          : 4:2:0
    Bit depth                   : 8 bits
    Scan type                   : Progressive
    Bits/(Pixel*Frame)          : 0.156
    Stream size                 : 6.73 GiB (78%)
    Title                       : Full HD1080p [CinemaniaHDD]
    Writing library             : x264 core 157 r2935 545de2f
    Encoding settings           : cabac=1 / ref=4 / deblock=1:0:0 / analyse=0x3:0x133 / me=tesa / subme=11 / psy=1 / psy_rd=1.00:0.00 / mixed_ref=1 / me_range=24 / chroma_me=1 / trellis=2 / 8x8dct=1 / cqm=0 / deadzone=21,11 / fast_pskip=0 / chroma_qp_offset=-2 / threads=24 / lookahead_threads=6 / sliced_threads=0 / nr=0 / decimate=1 / interlaced=0 / bluray_compat=0 / constrained_intra=0 / bframes=16 / b_pyramid=2 / b_adapt=2 / b_bias=0 / direct=3 / weightb=1 / open_gop=0 / weightp=2 / keyint=240 / keyint_min=24 / scenecut=40 / intra_refresh=0 / rc_lookahead=60 / rc=crf / mbtree=1 / crf=20.0 / qcomp=0.60 / qpmin=0 / qpmax=69 / qpstep=4 / vbv_maxrate=62500 / vbv_bufsize=78125 / crf_max=0.0 / nal_hrd=none / filler=0 / ip_ratio=1.40 / aq=1:1.00
    Default                     : Yes
    Forced                      : Yes
    Color range                 : Limited
    Color primaries             : BT.709
    Transfer characteristics    : BT.709
    Matrix coefficients         : BT.709

    Audio #1
    ID                          : 2
    Format                      : AC-3
    Format/Info                 : Audio Coding 3
    Commercial name             : Dolby Digital
    Codec ID                    : A_AC3
    Duration                    : 2 h 4 min
    Bit rate mode               : Constant
    Bit rate                    : 640 kb/s
    Channel(s)                  : 6 channels
    Channel layout              : L R C LFE Ls Rs
    Sampling rate               : 48.0 kHz
    Frame rate                  : 31.250 FPS (1536 SPF)
    Compression mode            : Lossy
    Stream size                 : 571 MiB (6%)
    Title                       : Español Latino [CinemaniaHDD]
    Language                    : Spanish
    Service kind                : Complete Main
    Default                     : Yes
    Forced                      : Yes

    Audio #2
    ID                          : 3
    Format                      : DTS
    Format/Info                 : Digital Theater Systems
    Codec ID                    : A_DTS
    Duration                    : 2 h 4 min
    Bit rate mode               : Constant
    Bit rate                    : 1 509 kb/s
    Channel(s)                  : 6 channels
    Channel layout              : C L R Ls Rs LFE
    Sampling rate               : 48.0 kHz
    Frame rate                  : 93.750 FPS (512 SPF)
    Bit depth                   : 24 bits
    Compression mode            : Lossy
    Stream size                 : 1.31 GiB (15%)
    Title                       : Ingles [CinemaniaHDD]
    Language                    : English
    Default                     : No
    Forced                      : No

    Text #1
    ID                          : 4
    Format                      : UTF-8
    Codec ID                    : S_TEXT/UTF8
    Codec ID/Info               : UTF-8 Plain Text
    Duration                    : 1 h 51 min
    Bit rate                    : 0 b/s
    Count of elements           : 24
    Stream size                 : 579 Bytes (0%)
    Title                       : Forzados-SRT [CinemaniaHDD]
    Language                    : Spanish
    Default                     : Yes
    Forced                      : Yes

    Text #2
    ID                          : 5
    Format                      : UTF-8
    Codec ID                    : S_TEXT/UTF8
    Codec ID/Info               : UTF-8 Plain Text
    Duration                    : 2 h 3 min
    Bit rate                    : 75 b/s
    Count of elements           : 2006
    Stream size                 : 68.7 KiB (0%)
    Title                       : Español-SRT [CinemaniaHDD]
    Language                    : Spanish
    Default                     : No
    Forced                      : No

    Text #3
    ID                          : 6
    Format                      : UTF-8
    Codec ID                    : S_TEXT/UTF8
    Codec ID/Info               : UTF-8 Plain Text
    Duration                    : 2 h 4 min
    Bit rate                    : 82 b/s
    Count of elements           : 1855
    Stream size                 : 75.0 KiB (0%)
    Title                       : Ingles-SRT [CinemaniaHDD]
    Language                    : English
    Default                     : No
    Forced                      : No

    Menu
    00:00:00.000                : en:00:00:00.000
    00:05:04.762                : en:00:05:04.762
    00:10:51.901                : en:00:10:51.901
    00:16:21.980                : en:00:16:21.980
    00:20:18.508                : en:00:20:18.508
    00:23:51.179                : en:00:23:51.179
    00:27:53.171                : en:00:27:53.171
    00:34:38.993                : en:00:34:38.993
    00:39:51.097                : en:00:39:51.097
    00:43:37.656                : en:00:43:37.656
    00:48:18.687                : en:00:48:18.687
    00:53:10.103                : en:00:53:10.103
    00:57:15.014                : en:00:57:15.014
    01:03:29.722                : en:01:03:29.722
    01:09:49.894                : en:01:09:49.894
    01:12:32.723                : en:01:12:32.723
    01:17:08.415                : en:01:17:08.415
    01:21:24.087                : en:01:21:24.087
    01:24:02.328                : en:01:24:02.328
    01:27:28.952                : en:01:27:28.952
    01:30:30.591                : en:01:30:30.591
    01:35:06.992                : en:01:35:06.992
    01:39:00.351                : en:01:39:00.351
    01:41:23.660                : en:01:41:23.660
    01:44:39.856                : en:01:44:39.856
    01:49:47.247                : en:01:49:47.247
    01:53:52.742                : en:01:53:52.742
    01:58:07.079                : en:01:58:07.079

  • Peso: 8.61 GiB

Sinopsis

Descargar Di­a de los Enamorados (2010) Full HD 1080p Latino. El film consta de varias historias que suceden el día de San Valentín: una oficial del ejército que vuela desde Iraq a Los Ángeles, coincide en el avión con alguien que debe resolver algunos asuntos; el dueño de una floristería le propone matrimonio a su novia, aunque, en realidad, está enamorado de una amiga, cuyo novio está casado; una jubilada le confiesa a su marido que mantuvo un largo romance con otra persona; una mujer que trabaja en la agencia de talentos más importante de la ciudad sale con un empleado de Correos. Y, finalmente, una desafortunada publicista resulta que no tiene con quién quedar el día de San Valentín.

Ficha técnica

Video trailer de la película

Enlaces de descarga

Rip de Bluray

Descargar Di­a de los Enamorados (2010) Full HD 1080p Latino




Aportes de DPeliculasHDmega la pass es:dpeliculashdmega.org Aportes de CinemaniaHD la pass es:cinemaniahdd.com

Películas relacionadas

  • Tren Bala (2022) WEB-DL 4K UHD HDR Latino

    Tren Bala (2022) WEB-DL 4K UHD HDR Latino

    2022
    Tren Bala (2022) WEB-DL 4K UHD HDR Latino

    2h 7m 2022

    Descargar Tren Bala (2022) WEB-DL 4K UHD HDR Latino. El desafortunado asesino "Catarina" está decidido...

    Director: Paul Barry

    Género: 4K HDR

    Actores: Zooey Miyoshi

  • Tren Bala (2022) AMZN WEB-DL 1080p Latino

    Tren Bala (2022) AMZN WEB-DL 1080p Latino

    2022
    Tren Bala (2022) AMZN WEB-DL 1080p Latino

    2h 7m 2022

    Descargar Tren Bala (2022) AMZN WEB-DL 1080p Latino. Cinco asesinos a sueldo se encuentran a bordo de...

    Director: Paul Barry

    Género: Acción

    Actores: Zooey Miyoshi

  • Rick y Morty (2022) Temporada 6 WEB-DL 1080p Latino

    Rick y Morty (2022) Temporada 6 WEB-DL 1080p Latino

    2013
    Rick y Morty (2022) Temporada 6 WEB-DL 1080p Latino

    0h 22m 2013

    Comedia animada que narra las aventuras de un científico loco Rick Sánchez, que regresa después de...

    Director: Justin Roiland

    Género: Action & Adventure

    Actores: Spencer Grammer

descargar Di­a de los Enamorados (2010) Full HD 1080p Latino Full 1080p 1080p gratis, Di­a de los Enamorados (2010) Full HD 1080p Latino Full 1080p mega 1 link, Di­a de los Enamorados (2010) Full HD 1080p Latino Full 1080p pelicula completa, descargar Di­a de los Enamorados (2010) Full HD 1080p Latino Full 1080p gratis en mega.

Di­a de los Enamorados (2010) Full HD 1080p Latino pelicula full hd, Di­a de los Enamorados (2010) Full HD 1080p Latino mega latino, Di­a de los Enamorados (2010) Full HD 1080p Latino 4k latino, Di­a de los Enamorados (2010) Full HD 1080p Latino pelicula completa, Di­a de los Enamorados (2010) Full HD 1080p Latino descargar gratis, descargar Di­a de los Enamorados (2010) Full HD 1080p Latino pelicula latino, Di­a de los Enamorados (2010) Full HD 1080p Latino 1 link mega, Di­a de los Enamorados (2010) Full HD 1080p Latino 1 link google drive, Di­a de los Enamorados (2010) Full HD 1080p Latino hd 1080p latino.
Comentarios 0