×

¿Problemas para descargar con Mozilla, EDGE? Deshabilita la opción "Abrir vinculos en una pestaña nueva" tal como lo muestra ésta imagen.

Vacation (2015) REMUX 1080p Latino – CMHDD

178 vistas

Información de Vacation (2015) REMUX 1080p Latino – CMHDD

Datos de la película

  • Calidad: Full 1080p
  • Audio: Español Latino AC3 5.1 BLURAY - Ingles DTS 5.1 BLURAY
  • Subtitulos: Español Latino PGS
  • Resolución: 1920x1080p
  • Formato: MKV
  • Codec: H.264
  • Encoder: Dracarys
  • Mediainfo: Clic para Mostrar Datos Ver
  • Format                      : Matroska
    Format version              : Version 4
    File size                   : 23.2 GiB
    Duration                    : 1 h 39 min
    Overall bit rate mode       : Variable
    Overall bit rate            : 33.5 Mb/s
    Movie name                  : Vacation (2015) REMUX 1080p Latino - CMHDD
    Encoded date                : UTC 2023-05-31 02:14:54
    Writing application         : mkvmerge v47.0.0 ('Black Flag') 64-bit
    Writing library             : libebml v1.3.10 + libmatroska v1.5.2
    Cover                       : Yes
    Attachments                 : cover.jpg

    Video
    ID                          : 1
    ID in the original source m : 4113 (0x1011)
    Format                      : AVC
    Format/Info                 : Advanced Video Codec
    Format profile              : High@L4.1
    Format settings             : CABAC / 2 Ref Frames
    Format settings, CABAC      : Yes
    Format settings, Reference  : 2 frames
    Codec ID                    : V_MPEG4/ISO/AVC
    Duration                    : 1 h 39 min
    Bit rate mode               : Variable
    Bit rate                    : 29.4 Mb/s
    Width                       : 1 920 pixels
    Height                      : 1 080 pixels
    Display aspect ratio        : 16:9
    Frame rate mode             : Constant
    Frame rate                  : 23.976 (24000/1001) FPS
    Color space                 : YUV
    Chroma subsampling          : 4:2:0
    Bit depth                   : 8 bits
    Scan type                   : Progressive
    Bits/(Pixel*Frame)          : 0.591
    Stream size                 : 20.3 GiB (88%)
    Default                     : Yes
    Forced                      : No
    Original source medium      : Blu-ray

    Audio #1
    ID                          : 2
    ID in the original source m : 4352 (0x1100)
    Format                      : DTS XLL
    Format/Info                 : Digital Theater Systems
    Commercial name             : DTS-HD Master Audio
    Codec ID                    : A_DTS
    Duration                    : 1 h 39 min
    Bit rate mode               : Variable
    Bit rate                    : 3 454 kb/s
    Channel(s)                  : 6 channels
    Channel layout              : C L R Ls Rs LFE
    Sampling rate               : 48.0 kHz
    Frame rate                  : 93.750 FPS (512 SPF)
    Bit depth                   : 24 bits
    Compression mode            : Lossless
    Stream size                 : 2.39 GiB (10%)
    Language                    : English
    Default                     : No
    Forced                      : No
    Original source medium      : Blu-ray

    Audio #2
    ID                          : 3
    ID in the original source m : 4355 (0x1103)
    Format                      : AC-3
    Format/Info                 : Audio Coding 3
    Commercial name             : Dolby Digital
    Codec ID                    : A_AC3
    Duration                    : 1 h 39 min
    Bit rate mode               : Constant
    Bit rate                    : 640 kb/s
    Channel(s)                  : 6 channels
    Channel layout              : L R C LFE Ls Rs
    Sampling rate               : 48.0 kHz
    Frame rate                  : 31.250 FPS (1536 SPF)
    Compression mode            : Lossy
    Stream size                 : 453 MiB (2%)
    Language                    : Spanish
    Service kind                : Complete Main
    Default                     : Yes
    Forced                      : No
    Original source medium      : Blu-ray

    Text #1
    ID                          : 4
    ID in the original source m : 4610 (0x1202)
    Format                      : PGS
    Muxing mode                 : zlib
    Codec ID                    : S_HDMV/PGS
    Codec ID/Info               : Picture based subtitle format used on BDs/HD-DVDs
    Duration                    : 1 h 38 min
    Bit rate                    : 39.5 kb/s
    Frame rate                  : 0.600 FPS
    Count of elements           : 3536
    Stream size                 : 27.8 MiB (0%)
    Language                    : Spanish
    Default                     : No
    Forced                      : No
    Original source medium      : Blu-ray

    Text #2
    ID                          : 5
    ID in the original source m : 4612 (0x1204)
    Format                      : PGS
    Muxing mode                 : zlib
    Codec ID                    : S_HDMV/PGS
    Codec ID/Info               : Picture based subtitle format used on BDs/HD-DVDs
    Duration                    : 1 h 38 min
    Bit rate                    : 1 143 b/s
    Frame rate                  : 0.015 FPS
    Count of elements           : 88
    Stream size                 : 823 KiB (0%)
    Language                    : Spanish
    Default                     : No
    Forced                      : No
    Original source medium      : Blu-ray

    Menu
    00:00:00.000                : en:Capítulo 01
    00:11:56.674                : en:Capítulo 02
    00:20:55.379                : en:Capítulo 03
    00:29:27.140                : en:Capítulo 04
    00:40:54.618                : en:Capítulo 05
    00:47:55.664                : en:Capítulo 06
    01:00:23.286                : en:Capítulo 07
    01:09:41.802                : en:Capítulo 08
    01:20:52.472                : en:Capítulo 09
    01:28:00.441                : en:Capítulo 10
    01:34:51.936                : en:Capítulo 11

  • Peso: 23.2 GiB

Sinopsis

La siguiente generación de Griswolds se embarca en otra aventura malograda. Siguiendo los pasos de su padre y en espera de poder fortalecer la necesitada unión familiar, el ya adulto Rusty Griswold sorprende a su esposa Debbie y a sus dos hijos con un viaje a través del país de regreso a Walley World, el «parque de diversiones favorito de los Estados Unidos».

Ficha técnica

Video trailer de la película

Enlaces de descarga

Rip de Bluray

Descargar Vacation (2015) REMUX 1080p Latino – CMHDD


Aportes de DPeliculasHDmega la pass es:dpeliculashdmega.org Aportes de CinemaniaHD la pass es:cinemaniahdd.com Aportes recientes:cinemaniahdd.net
Guardado en : Comedia

Películas relacionadas

  • La La Land (2016) REMUX 1080p Latino – CMHDD

    La La Land (2016) REMUX 1080p Latino – CMHDD

    2016
    La La Land (2016) REMUX 1080p Latino – CMHDD

    2h 8m 2016

    Mia (Emma Stone), una joven aspirante a actriz que trabaja como camarera mientras acude a castings, y...

    Director: Peter Kohn

    Género: Comedia

    Actores: Zoë Hall

  • La La Land (2016) REMUX 4K HDR Latino – CMHDD

    La La Land (2016) REMUX 4K HDR Latino – CMHDD

    2016
    La La Land (2016) REMUX 4K HDR Latino – CMHDD

    2h 8m 2016

    Mia, una joven aspirante a actriz que compagina los castings con su trabajo de camarera, y Sebastian,...

    Director: Peter Kohn

    Género: Comedia

    Actores: Zoë Hall

  • Loco Por Ella (2010) Full HD 1080p Latino-CMHDD

    Loco Por Ella (2010) Full HD 1080p Latino-CMHDD

    2010
    Loco Por Ella (2010) Full HD 1080p Latino-CMHDD

    1 h 41 min 2010

    Descargar Loco Por Ella (2010) REMUX 1080p Latino-CMHDD. Cuando Kassie (Jennifer Aniston) cumple los...

    Director: Will Speck

    Género: Actualizadas

    Actores: Will Swenson

  • Loco Por Ella (2010) REMUX 1080p Latino-CMHDD

    Loco Por Ella (2010) REMUX 1080p Latino-CMHDD

    2010
    Loco Por Ella (2010) REMUX 1080p Latino-CMHDD

    1h 39m 2010

    Descargar Loco Por Ella (2010) REMUX 1080p Latino-CMHDD. Cuando Kassie (Jennifer Aniston) cumple los...

    Director: Will Speck

    Género: Comedia

    Actores: Will Swenson

descargar Vacation (2015) REMUX 1080p Latino – CMHDD Full 1080p 1080p gratis, Vacation (2015) REMUX 1080p Latino – CMHDD Full 1080p mega 1 link, Vacation (2015) REMUX 1080p Latino – CMHDD Full 1080p pelicula completa, descargar Vacation (2015) REMUX 1080p Latino – CMHDD Full 1080p gratis en mega.

Vacation (2015) REMUX 1080p Latino – CMHDD pelicula full hd, Vacation (2015) REMUX 1080p Latino – CMHDD mega latino, Vacation (2015) REMUX 1080p Latino – CMHDD 4k latino, Vacation (2015) REMUX 1080p Latino – CMHDD pelicula completa, Vacation (2015) REMUX 1080p Latino – CMHDD descargar gratis, descargar Vacation (2015) REMUX 1080p Latino – CMHDD pelicula latino, Vacation (2015) REMUX 1080p Latino – CMHDD 1 link mega, Vacation (2015) REMUX 1080p Latino – CMHDD 1 link google drive, Vacation (2015) REMUX 1080p Latino – CMHDD hd 1080p latino.
Comentarios 0