×

¿Problemas para descargar con Mozilla, EDGE? Deshabilita la opción "Abrir vinculos en una pestaña nueva" tal como lo muestra ésta imagen.

Vacaciones de verano (2023) NF WEB-DL 1080p Español

140 vistas

Información de Vacaciones de verano (2023) NF WEB-DL 1080p Español

Datos de la película

  • Calidad: WEBDL
  • Audio: Español España AC3 5.1 Netflix
  • Subtitulos: Español Latino SRT- FORZADOS SRT
  • Resolución: 1920x1080p
  • Formato: MKV
  • Codec: H.264
  • Encoder: Melkor
  • Mediainfo: Clic para Mostrar Datos Ver
  • Vacaciones De Verano (2023) NF WEB 1080p Cast.mkv
    Format                      : Matroska
    Format version              : Version 4
    File size                   : 3.75 GiB
    Duration                    : 1 h 40 min
    Overall bit rate mode       : Variable
    Overall bit rate            : 5 357 kb/s
    Movie name                  : Vacaciones De Verano (2023) CinemaniaHDD.Net
    Encoded date                : UTC 2023-11-07 06:19:10
    Writing application         : mkvmerge v59.0.0 ('Shining Star') 64-bit
    Writing library             : libebml v1.4.2 + libmatroska v1.6.4
    Attachments                 : CINEMANIAHD.png
    Site                        : CinemaniaHDD.Net
    Uploader                    : Melkor

    Video
    ID                          : 1
    Format                      : AVC
    Format/Info                 : Advanced Video Codec
    Format profile              : Main@L4
    Format settings             : CABAC / 3 Ref Frames
    Format settings, CABAC      : Yes
    Format settings, Reference  : 3 frames
    Codec ID                    : V_MPEG4/ISO/AVC
    Duration                    : 1 h 40 min
    Bit rate mode               : Variable
    Bit rate                    : 5 000 kb/s
    Maximum bit rate            : 7 500 kb/s
    Width                       : 1 920 pixels
    Height                      : 1 080 pixels
    Display aspect ratio        : 16:9
    Frame rate mode             : Constant
    Frame rate                  : 24.000 FPS
    Color space                 : YUV
    Chroma subsampling          : 4:2:0
    Bit depth                   : 8 bits
    Scan type                   : Progressive
    Bits/(Pixel*Frame)          : 0.100
    Stream size                 : 3.48 GiB (93%)
    Title                       : WEB HD1080p [CinemaniaHDD]
    Writing library             : x264 core 148 r2727 7d026e8
    Encoding settings           : cabac=1 / ref=3 / deblock=1:0:0 / analyse=0x1:0x111 / me=umh / subme=10 / psy=1 / psy_rd=1.00:0.00 / mixed_ref=1 / me_range=24 / chroma_me=1 / trellis=2 / 8x8dct=0 / cqm=0 / deadzone=21,11 / fast_pskip=1 / chroma_qp_offset=-2 / threads=6 / lookahead_threads=1 / sliced_threads=0 / nr=0 / decimate=1 / interlaced=0 / bluray_compat=0 / stitchable=1 / constrained_intra=0 / bframes=2 / b_pyramid=0 / b_adapt=2 / b_bias=0 / direct=3 / weightb=1 / open_gop=0 / weightp=2 / keyint=240 / keyint_min=121 / scenecut=0 / intra_refresh=0 / rc_lookahead=48 / rc=2pass / mbtree=1 / bitrate=5000 / ratetol=1.0 / qcomp=0.50 / qpmin=6 / qpmax=51 / qpstep=4 / cplxblur=20.0 / qblur=0.5 / vbv_maxrate=7500 / vbv_bufsize=10000 / nal_hrd=vbr / filler=0 / ip_ratio=1.40 / aq=1:1.00
    Default                     : Yes
    Forced                      : Yes

    Audio
    ID                          : 2
    Format                      : AC-3
    Format/Info                 : Audio Coding 3
    Commercial name             : Dolby Digital
    Codec ID                    : A_AC3
    Duration                    : 1 h 40 min
    Bit rate mode               : Constant
    Bit rate                    : 384 kb/s
    Channel(s)                  : 6 channels
    Channel layout              : L R C LFE Ls Rs
    Sampling rate               : 48.0 kHz
    Frame rate                  : 31.250 FPS (1536 SPF)
    Compression mode            : Lossy
    Stream size                 : 276 MiB (7%)
    Title                       : Español [CinemaniaHDD]
    Language                    : Spanish
    Service kind                : Complete Main
    Default                     : Yes
    Forced                      : Yes

    Text #1
    ID                          : 3
    Format                      : UTF-8
    Codec ID                    : S_TEXT/UTF8
    Codec ID/Info               : UTF-8 Plain Text
    Duration                    : 1 s 167 ms
    Bit rate                    : 143 b/s
    Count of elements           : 1
    Stream size                 : 21.0 Bytes (0%)
    Title                       : Forzados-SRT [CinemaniaHDD]
    Language                    : Spanish
    Default                     : Yes
    Forced                      : Yes

    Text #2
    ID                          : 4
    Format                      : UTF-8
    Codec ID                    : S_TEXT/UTF8
    Codec ID/Info               : UTF-8 Plain Text
    Duration                    : 1 h 40 min
    Bit rate                    : 98 b/s
    Count of elements           : 1972
    Stream size                 : 72.2 KiB (0%)
    Title                       : Español-SRT [CinemaniaHDD]
    Language                    : Spanish
    Default                     : No
    Forced                      : No

    Text #3
    ID                          : 5
    Format                      : UTF-8
    Codec ID                    : S_TEXT/UTF8
    Codec ID/Info               : UTF-8 Plain Text
    Duration                    : 1 h 40 min
    Bit rate                    : 90 b/s
    Count of elements           : 1970
    Stream size                 : 66.5 KiB (0%)
    Title                       : English [SDH]
    Language                    : English
    Default                     : No
    Forced                      : No

  • Peso: 3.75 GiB

Sinopsis

Descargar Vacaciones de verano (2023) NF WEB-DL 1080p Español. Dos amigos, Oscar y Félix, pierden su trabajo y se ven obligados a aceptar un trabajo temporal como animadores infantiles en un hotel de lujo. Al ser ambos divorciados, les tocan sus hijos un mes de verano y les es imposible compaginarlo con el trabajo, con lo cual deciden llevarse a los niños y ocultarlos en el hotel, escondidos en la zona de empleados… pero el plan resulta ser un desastre.

Ficha técnica

Video trailer de la película

Enlaces de descarga

Rip de Bluray

Descargar Vacaciones de verano (2023) NF WEB-DL 1080p Español




Aportes de DPeliculasHDmega la pass es:dpeliculashdmega.org Aportes de CinemaniaHD la pass es:cinemaniahdd.com Aportes recientes:cinemaniahdd.net
Guardado en : Comedia , Familia , Netflix

Películas relacionadas

descargar Vacaciones de verano (2023) NF WEB-DL 1080p Español WEBDL 1080p gratis, Vacaciones de verano (2023) NF WEB-DL 1080p Español WEBDL mega 1 link, Vacaciones de verano (2023) NF WEB-DL 1080p Español WEBDL pelicula completa, descargar Vacaciones de verano (2023) NF WEB-DL 1080p Español WEBDL gratis en mega.

Vacaciones de verano (2023) NF WEB-DL 1080p Español pelicula full hd, Vacaciones de verano (2023) NF WEB-DL 1080p Español mega latino, Vacaciones de verano (2023) NF WEB-DL 1080p Español 4k latino, Vacaciones de verano (2023) NF WEB-DL 1080p Español pelicula completa, Vacaciones de verano (2023) NF WEB-DL 1080p Español descargar gratis, descargar Vacaciones de verano (2023) NF WEB-DL 1080p Español pelicula latino, Vacaciones de verano (2023) NF WEB-DL 1080p Español 1 link mega, Vacaciones de verano (2023) NF WEB-DL 1080p Español 1 link google drive, Vacaciones de verano (2023) NF WEB-DL 1080p Español hd 1080p latino.
Comentarios 0