×

¿Problemas para descargar con Mozilla, EDGE? Deshabilita la opción "Abrir vinculos en una pestaña nueva" tal como lo muestra ésta imagen.

Vacaciones De Terror (1989) Vinegar Syndrome REMUX 1080p Latino-CMHDD

157 vistas

Información de Vacaciones De Terror (1989) Vinegar Syndrome REMUX 1080p Latino-CMHDD

Datos de la película

  • Calidad: Full 1080p
  • Audio: Se especifica abajo de la Sinopsis
  • Subtitulos: Ingles SRT
  • Resolución: 1920x1080p
  • Formato: MKV
  • Codec: H.264
  • Encoder: CinefiloCool
  • Mediainfo: Clic para Mostrar Datos Ver
  • Vacaciones.De.Terror.1989.Vinegar.Syndrome.Bluray.REMUX.1080p.AVC.Latino-CC@CMHDD.mkv
    Format                      : Matroska
    Format version              : Version 4
    File size                   : 19.2 GiB
    Duration                    : 1 h 21 min
    Overall bit rate mode       : Variable
    Overall bit rate            : 33.8 Mb/s
    Movie name                  : Vacaciones De Terror (1989) CinemaniaHDD.Net
    Encoded date                : UTC 2024-03-20 02:12:51
    Writing application         : mkvmerge v56.1.0 ('My Friend') 64-bit
    Writing library             : libebml v1.4.2 + libmatroska v1.6.4
    Attachments                 : CINEMANIAHD.png

    Video
    ID                          : 1
    ID in the original source m : 4113 (0x1011)
    Format                      : AVC
    Format/Info                 : Advanced Video Codec
    Format profile              : High@L4.1
    Format settings             : CABAC / 3 Ref Frames
    Format settings, CABAC      : Yes
    Format settings, Reference  : 3 frames
    Codec ID                    : V_MPEG4/ISO/AVC
    Duration                    : 1 h 21 min
    Bit rate mode               : Variable
    Bit rate                    : 32.0 Mb/s
    Maximum bit rate            : 40.0 Mb/s
    Width                       : 1 920 pixels
    Height                      : 1 080 pixels
    Display aspect ratio        : 16:9
    Frame rate mode             : Constant
    Frame rate                  : 23.976 (24000/1001) FPS
    Color space                 : YUV
    Chroma subsampling          : 4:2:0
    Bit depth                   : 8 bits
    Scan type                   : Progressive
    Bits/(Pixel*Frame)          : 0.644
    Stream size                 : 18.1 GiB (94%)
    Title                       : REMUX HD1080p [CinemaniaHDD]
    Writing library             : x264 core 164 r3101 b093bbe
    Encoding settings           : cabac=1 / ref=4 / deblock=0:-2:-2 / analyse=0x3:0x133 / me=umh / subme=10 / psy=1 / psy_rd=1.00:0.25 / mixed_ref=1 / me_range=24 / chroma_me=1 / trellis=2 / 8x8dct=1 / cqm=0 / deadzone=6,6 / fast_pskip=1 / chroma_qp_offset=-4 / threads=30 / lookahead_threads=2 / sliced_threads=0 / slices=4 / nr=0 / decimate=0 / interlaced=0 / bluray_compat=1 / constrained_intra=0 / bframes=3 / b_pyramid=1 / b_adapt=2 / b_bias=0 / direct=3 / weightb=1 / open_gop=1 / weightp=1 / keyint=24 / keyint_min=1 / scenecut=40 / intra_refresh=0 / rc_lookahead=24 / rc=2pass / mbtree=0 / bitrate=32000 / ratetol=1.0 / qcomp=0.80 / qpmin=0 / qpmax=69 / qpstep=4 / cplxblur=20.0 / qblur=0.5 / vbv_maxrate=40000 / vbv_bufsize=30000 / nal_hrd=vbr / filler=0 / ip_ratio=1.10 / pb_ratio=1.10 / aq=1:0.50
    Default                     : Yes
    Forced                      : Yes
    Color range                 : Limited
    Color primaries             : BT.709
    Transfer characteristics    : BT.709
    Matrix coefficients         : BT.709
    Original source medium      : Blu-ray

    Audio #1
    ID                          : 2
    Format                      : DTS
    Format/Info                 : Digital Theater Systems
    Codec ID                    : A_DTS
    Duration                    : 1 h 21 min
    Bit rate mode               : Constant
    Bit rate                    : 768 kb/s
    Channel(s)                  : 1 channel
    Channel layout              : C
    Sampling rate               : 48.0 kHz
    Frame rate                  : 93.750 FPS (512 SPF)
    Bit depth                   : 24 bits
    Compression mode            : Lossy
    Stream size                 : 445 MiB (2%)
    Title                       : Español Latino Core DTS [CinemaniaHDD]
    Language                    : Spanish
    Default                     : Yes
    Forced                      : Yes

    Audio #2
    ID                          : 3
    ID in the original source m : 4352 (0x1100)
    Format                      : DTS XLL
    Format/Info                 : Digital Theater Systems
    Commercial name             : DTS-HD Master Audio
    Codec ID                    : A_DTS
    Duration                    : 1 h 21 min
    Bit rate mode               : Variable
    Bit rate                    : 1 094 kb/s
    Channel(s)                  : 1 channel
    Channel layout              : C
    Sampling rate               : 48.0 kHz
    Frame rate                  : 93.750 FPS (512 SPF)
    Bit depth                   : 24 bits
    Compression mode            : Lossless
    Stream size                 : 634 MiB (3%)
    Title                       : Español Latino [CinemaniaHDD]
    Language                    : Spanish
    Default                     : No
    Forced                      : No
    Original source medium      : Blu-ray

    Text
    ID                          : 4
    ID in the original source m : 4608 (0x1200)
    Format                      : PGS
    Muxing mode                 : zlib
    Codec ID                    : S_HDMV/PGS
    Codec ID/Info               : Picture based subtitle format used on BDs/HD-DVDs
    Duration                    : 1 h 19 min
    Bit rate                    : 17.6 kb/s
    Count of elements           : 1291
    Stream size                 : 10.0 MiB (0%)
    Title                       : Ingles [CinemaniaHDD]
    Language                    : English
    Default                     : No
    Forced                      : No
    Original source medium      : Blu-ray

    Menu
    00:00:00.000                : Chapter 01
    00:19:47.186                : Chapter 02
    00:39:01.339                : Chapter 03
    00:58:10.487                : Chapter 04
    01:17:35.651                : Chapter 05

  • Peso: 19.2 GiB

Sinopsis

Descargar Vacaciones De Terror (1989) Vinegar Syndrome REMUX 1080p Latino-CMHDD. La bruja del pueblo ha sido quemada, no sin antes mandar sus maleficios a los lugareños; una muñeca y un amuleto serán el recuerdo de este acontecimiento. La herencia de una casa de campo, a causado gran regocijo a una familia, y acuden de vacaciones a ese lugar. Los maleficios se hacen realidad cuando Gaby, la hija pequeña de la familia es poseída por el espíritu de la bruja y a través de la muñeca realiza actos diabólicos. Preparase a vivir unos instantes de suspenso, acción y terror en esta escalofriante cinta.

Audio Español Latino DTS-HD Mono Bluray

Ficha técnica

Video trailer de la película

Enlaces de descarga

Rip de Bluray

Descargar Vacaciones De Terror (1989) Vinegar Syndrome REMUX 1080p Latino-CMHDD


Aportes de DPeliculasHDmega la pass es:dpeliculashdmega.org Aportes de CinemaniaHD la pass es:cinemaniahdd.com Aportes recientes:cinemaniahdd.net
Guardado en : Fantasía , Remux , Suspenso , Terror

Películas relacionadas

  • Wolves (2022) AMZN WEB-DL 1080p Latino

    Wolves (2022) AMZN WEB-DL 1080p Latino

    2022
    Wolves (2022) AMZN WEB-DL 1080p Latino

    1h 43m 2022

    Un joven solitario se depara con una serie de crímenes sin resolver, que involucran animales mutilados...

    Director: Danny Dunlop

    Género: Crimen

    Actores: Rod Keith

  • Tarot (2024) REMUX 1080p Latino-CMHDD

    Tarot (2024) REMUX 1080p Latino-CMHDD

    2024
    Tarot (2024) REMUX 1080p Latino-CMHDD

    1h 32m 2024

    Descargar Tarot (2024) REMUX 1080p Latino-CMHDD. Un grupo de amigos de la universidad comienzan a morir...

    Director: Spenser Cohen

    Género: Remux

    Actores: Wolfgang Novogratz

  • Tarot (2024) Full HD 1080p Latino-CMHDD

    Tarot (2024) Full HD 1080p Latino-CMHDD

    2024
    Tarot (2024) Full HD 1080p Latino-CMHDD

    1h 32m 2024

    Descargar Tarot (2024) Full HD 1080p Latino-CMHDD. Un grupo de amigos de la universidad comienzan a morir...

    Director: Spenser Cohen

    Género: FULL 1080p Plateadas

    Actores: Wolfgang Novogratz

descargar Vacaciones De Terror (1989) Vinegar Syndrome REMUX 1080p Latino-CMHDD Full 1080p 1080p gratis, Vacaciones De Terror (1989) Vinegar Syndrome REMUX 1080p Latino-CMHDD Full 1080p mega 1 link, Vacaciones De Terror (1989) Vinegar Syndrome REMUX 1080p Latino-CMHDD Full 1080p pelicula completa, descargar Vacaciones De Terror (1989) Vinegar Syndrome REMUX 1080p Latino-CMHDD Full 1080p gratis en mega.

Vacaciones De Terror (1989) Vinegar Syndrome REMUX 1080p Latino-CMHDD pelicula full hd, Vacaciones De Terror (1989) Vinegar Syndrome REMUX 1080p Latino-CMHDD mega latino, Vacaciones De Terror (1989) Vinegar Syndrome REMUX 1080p Latino-CMHDD 4k latino, Vacaciones De Terror (1989) Vinegar Syndrome REMUX 1080p Latino-CMHDD pelicula completa, Vacaciones De Terror (1989) Vinegar Syndrome REMUX 1080p Latino-CMHDD descargar gratis, descargar Vacaciones De Terror (1989) Vinegar Syndrome REMUX 1080p Latino-CMHDD pelicula latino, Vacaciones De Terror (1989) Vinegar Syndrome REMUX 1080p Latino-CMHDD 1 link mega, Vacaciones De Terror (1989) Vinegar Syndrome REMUX 1080p Latino-CMHDD 1 link google drive, Vacaciones De Terror (1989) Vinegar Syndrome REMUX 1080p Latino-CMHDD hd 1080p latino.
Comentarios 0