×

¿Problemas para descargar con Mozilla, EDGE? Deshabilita la opción "Abrir vinculos en una pestaña nueva" tal como lo muestra ésta imagen.

Vacaciones Contigo… Y Tu Mujer (2020) REMUX 1080p Latino

94 vistas

Información de Vacaciones Contigo… Y Tu Mujer (2020) REMUX 1080p Latino

Datos de la película

  • Calidad: Full 1080p
  • Audio: Se especifica abajo de la Sinopsis
  • Subtitulos: Español Latino SRT- FORZADOS SRT
  • Resolución: 1920x1080p
  • Formato: MKV
  • Codec: H.264
  • Encoder: Melkor
  • Mediainfo: Clic para Mostrar Datos Ver
  • Vacaciones Contigo... Y Tu Mujer (2020) REMUX 1080p Latino.mkv
    Format                      : Matroska
    Format version              : Version 4
    File size                   : 26.1 GiB
    Duration                    : 1 h 36 min
    Overall bit rate mode       : Variable
    Overall bit rate            : 38.7 Mb/s
    Movie name                  : Antoinette dans les Cévennes (2020) CinemaniaHDD.Net
    Encoded date                : UTC 2022-07-07 06:21:16
    Writing application         : mkvmerge v56.1.0 ('My Friend') 64-bit
    Writing library             : libebml v1.4.2 + libmatroska v1.6.4
    Attachments                 : CINEMANIAHD.png

    Video
    ID                          : 1
    Format                      : AVC
    Format/Info                 : Advanced Video Codec
    Format profile              : High@L4.1
    Format settings             : CABAC / 4 Ref Frames
    Format settings, CABAC      : Yes
    Format settings, Reference  : 4 frames
    Codec ID                    : V_MPEG4/ISO/AVC
    Duration                    : 1 h 36 min
    Bit rate mode               : Variable
    Bit rate                    : 34.6 Mb/s
    Maximum bit rate            : 36.0 Mb/s
    Width                       : 1 920 pixels
    Height                      : 1 080 pixels
    Display aspect ratio        : 16:9
    Frame rate mode             : Constant
    Frame rate                  : 24.000 FPS
    Color space                 : YUV
    Chroma subsampling          : 4:2:0
    Bit depth                   : 8 bits
    Scan type                   : Progressive
    Bits/(Pixel*Frame)          : 0.696
    Stream size                 : 23.4 GiB (90%)
    Title                       : REMUX HD1080p [CinemaniaHDD]
    Default                     : Yes
    Forced                      : Yes

    Audio #1
    ID                          : 2
    Format                      : AC-3
    Format/Info                 : Audio Coding 3
    Commercial name             : Dolby Digital
    Codec ID                    : A_AC3
    Duration                    : 1 h 36 min
    Bit rate mode               : Constant
    Bit rate                    : 256 kb/s
    Channel(s)                  : 2 channels
    Channel layout              : L R
    Sampling rate               : 48.0 kHz
    Frame rate                  : 31.250 FPS (1536 SPF)
    Compression mode            : Lossy
    Stream size                 : 177 MiB (1%)
    Title                       : Español Latino [CinemaniaHDD]
    Language                    : Spanish
    Service kind                : Complete Main
    Default                     : Yes
    Forced                      : Yes

    Audio #2
    ID                          : 3
    Format                      : DTS XLL
    Format/Info                 : Digital Theater Systems
    Commercial name             : DTS-HD Master Audio
    Codec ID                    : A_DTS
    Duration                    : 1 h 36 min
    Bit rate mode               : Variable
    Bit rate                    : 3 774 kb/s
    Channel(s)                  : 6 channels
    Channel layout              : C L R Ls Rs LFE
    Sampling rate               : 48.0 kHz
    Frame rate                  : 93.750 FPS (512 SPF)
    Bit depth                   : 24 bits
    Compression mode            : Lossless
    Stream size                 : 2.55 GiB (10%)
    Title                       : Frances [CinemaniaHDD]
    Language                    : French
    Default                     : No
    Forced                      : Yes

    Text #1
    ID                          : 4
    Format                      : UTF-8
    Codec ID                    : S_TEXT/UTF8
    Codec ID/Info               : UTF-8 Plain Text
    Duration                    : 2 s 167 ms
    Bit rate                    : 55 b/s
    Count of elements           : 1
    Stream size                 : 15.0 Bytes (0%)
    Title                       : Forzados-SRT [CinemaniaHDD]
    Language                    : Spanish
    Default                     : Yes
    Forced                      : Yes

    Text #2
    ID                          : 5
    Format                      : UTF-8
    Codec ID                    : S_TEXT/UTF8
    Codec ID/Info               : UTF-8 Plain Text
    Duration                    : 1 h 31 min
    Bit rate                    : 42 b/s
    Count of elements           : 1187
    Stream size                 : 28.3 KiB (0%)
    Title                       : Español-SRT [CinemaniaHDD]
    Language                    : Spanish
    Default                     : No
    Forced                      : No

    Text #3
    ID                          : 6
    Format                      : UTF-8
    Codec ID                    : S_TEXT/UTF8
    Codec ID/Info               : UTF-8 Plain Text
    Duration                    : 1 h 35 min
    Bit rate                    : 62 b/s
    Count of elements           : 1760
    Stream size                 : 43.6 KiB (0%)
    Title                       : Frances [CinemaniaHDD]
    Language                    : French
    Default                     : No
    Forced                      : No

    Menu
    00:00:00.000                : :Chapter 01
    00:09:38.125                : :Chapter 02
    00:17:18.750                : :Chapter 03
    00:23:51.791                : :Chapter 04
    00:27:46.041                : :Chapter 05
    00:33:50.583                : :Chapter 06
    00:41:10.416                : :Chapter 07
    00:47:40.916                : :Chapter 08
    00:55:53.833                : :Chapter 09
    01:02:56.041                : :Chapter 10
    01:08:32.833                : :Chapter 11
    01:13:39.125                : :Chapter 12
    01:17:05.250                : :Chapter 13
    01:22:11.541                : :Chapter 14
    01:26:12.791                : :Chapter 15
    01:32:44.708                : :Chapter 16

  • Peso: 26.1 GiB

Sinopsis

Descargar Vacaciones Contigo… Y Tu Mujer (2020) REMUX 1080p Latino. Antoinette, una maestra de escuela, espera con ansias sus largas vacaciones de verano planeadas con su amante secreto Vladimir, el padre de uno de sus alumnos. Al enterarse de que Vladimir no puede venir porque su esposa organizó unas vacaciones de trekking sorpresa con su hija y un burro para llevar su carga, Antoinette decide seguir su rastro, sola, con Patrick, un burro protector.

Español Latino AC3 2.0 Web – Frances DTS-HD 5.1 BD

Ficha técnica

Video trailer de la película

Enlaces de descarga

Rip de Bluray

Descargar Vacaciones Contigo… Y Tu Mujer (2020) REMUX 1080p Latino




Aportes de DPeliculasHDmega la pass es:dpeliculashdmega.org Aportes de CinemaniaHD la pass es:cinemaniahdd.com
Guardado en : Aventura , Comedia , Remux , Romance

Películas relacionadas

  • Abracadabra 2 (2022) D+ WEB-DL 4K UHD HDR Latino

    Abracadabra 2 (2022) D+ WEB-DL 4K UHD HDR Latino

    2022
    Abracadabra 2 (2022) D+ WEB-DL 4K UHD HDR Latino

    1h 45m 2022

    Descargar Abracadabra 2 (2022) D+ WEB-DL 4K UHD HDR Latino. Han pasado 29 años desde que alguien encendió...

    Director: Anne Fletcher

    Género: 4K HDR

    Actores: Whitney Peak

  • Abracadabra 2 (2022) D+ WEB-DL 1080p Latino

    Abracadabra 2 (2022) D+ WEB-DL 1080p Latino

    2022
    Abracadabra 2 (2022) D+ WEB-DL 1080p Latino

    1h 45m 2022

    Descargar Abracadabra 2 (2022) D+ WEB-DL 1080p Latino. Han pasado 29 años desde que alguien encendió...

    Director: Anne Fletcher

    Género: Comedia

    Actores: Whitney Peak

  • Hot Summer Nights (2017) 4K-SDR WEB-DL 2160p Latino

    Hot Summer Nights (2017) 4K-SDR WEB-DL 2160p Latino

    2018
    Hot Summer Nights (2017) 4K-SDR WEB-DL 2160p Latino

    1h 47m 2018

    Daniel es un tímido adolescente que comienza a vender marihuana, entrando en un mundo tentador pero...

    Director: Stephen W. Moore

    Género: 4K HDR

    Actores: Zack Shires

  • Hot Summer Nights (2017) AMZN WEB-DL 1080p Latino

    Hot Summer Nights (2017) AMZN WEB-DL 1080p Latino

    2018
    Hot Summer Nights (2017) AMZN WEB-DL 1080p Latino

    1h 47m 2018

    Daniel es un tímido adolescente que comienza a vender marihuana, entrando en un mundo tentador pero...

    Director: Stephen W. Moore

    Género: Comedia

    Actores: Zack Shires

descargar Vacaciones Contigo… Y Tu Mujer (2020) REMUX 1080p Latino Full 1080p 1080p gratis, Vacaciones Contigo… Y Tu Mujer (2020) REMUX 1080p Latino Full 1080p mega 1 link, Vacaciones Contigo… Y Tu Mujer (2020) REMUX 1080p Latino Full 1080p pelicula completa, descargar Vacaciones Contigo… Y Tu Mujer (2020) REMUX 1080p Latino Full 1080p gratis en mega.

Vacaciones Contigo… Y Tu Mujer (2020) REMUX 1080p Latino pelicula full hd, Vacaciones Contigo… Y Tu Mujer (2020) REMUX 1080p Latino mega latino, Vacaciones Contigo… Y Tu Mujer (2020) REMUX 1080p Latino 4k latino, Vacaciones Contigo… Y Tu Mujer (2020) REMUX 1080p Latino pelicula completa, Vacaciones Contigo… Y Tu Mujer (2020) REMUX 1080p Latino descargar gratis, descargar Vacaciones Contigo… Y Tu Mujer (2020) REMUX 1080p Latino pelicula latino, Vacaciones Contigo… Y Tu Mujer (2020) REMUX 1080p Latino 1 link mega, Vacaciones Contigo… Y Tu Mujer (2020) REMUX 1080p Latino 1 link google drive, Vacaciones Contigo… Y Tu Mujer (2020) REMUX 1080p Latino hd 1080p latino.
Comentarios 0