×

¿Problemas para descargar con Mozilla, EDGE? Deshabilita la opción "Abrir vinculos en una pestaña nueva" tal como lo muestra ésta imagen.

Vacaciones Contigo… Y Tu Mujer (2020) PLACEBO Full HD 1080p Latino

271 vistas

Información de Vacaciones Contigo… Y Tu Mujer (2020) PLACEBO Full HD 1080p Latino

Datos de la película

  • Calidad: Full 1080p
  • Audio: Se especifica abajo de la Sinopsis
  • Subtitulos: Español Latino SRT- FORZADOS SRT
  • Resolución: 1920x1080p
  • Formato: MKV
  • Codec: H.264
  • Encoder: Melkor
  • Mediainfo: Clic para Mostrar Datos Ver
  • Vacaciones Contigo... Y Tu Mujer (2020) PLACEBO 1080p Latino.mkv
    Format                      : Matroska
    Format version              : Version 4
    File size                   : 7.39 GiB
    Duration                    : 1 h 36 min
    Overall bit rate            : 11.0 Mb/s
    Movie name                  : Antoinette dans les Cévennes (2020) CinemaniaHDD.Net
    Encoded date                : UTC 2022-07-07 20:36:09
    Writing application         : mkvmerge v56.1.0 ('My Friend') 64-bit
    Writing library             : libebml v1.4.2 + libmatroska v1.6.4
    Attachments                 : CINEMANIAHD.png

    Video
    ID                          : 1
    Format                      : AVC
    Format/Info                 : Advanced Video Codec
    Format profile              : High@L4.1
    Format settings             : CABAC / 4 Ref Frames
    Format settings, CABAC      : Yes
    Format settings, Reference  : 4 frames
    Codec ID                    : V_MPEG4/ISO/AVC
    Duration                    : 1 h 36 min
    Bit rate                    : 9 184 kb/s
    Width                       : 1 920 pixels
    Height                      : 1 080 pixels
    Display aspect ratio        : 16:9
    Frame rate mode             : Constant
    Frame rate                  : 24.000 FPS
    Color space                 : YUV
    Chroma subsampling          : 4:2:0
    Bit depth                   : 8 bits
    Scan type                   : Progressive
    Bits/(Pixel*Frame)          : 0.185
    Stream size                 : 6.20 GiB (84%)
    Title                       : Full HD1080p [CinemaniaHDD]
    Writing library             : x264 core 163 r3059 b684ebe0
    Encoding settings           : cabac=1 / ref=4 / deblock=1:0:0 / analyse=0x3:0x133 / me=tesa / subme=11 / psy=1 / psy_rd=1.00:0.00 / mixed_ref=1 / me_range=24 / chroma_me=1 / trellis=2 / 8x8dct=1 / cqm=0 / deadzone=21,11 / fast_pskip=0 / chroma_qp_offset=-2 / threads=24 / lookahead_threads=6 / sliced_threads=0 / nr=0 / decimate=1 / interlaced=0 / bluray_compat=0 / constrained_intra=0 / bframes=16 / b_pyramid=2 / b_adapt=2 / b_bias=0 / direct=3 / weightb=1 / open_gop=0 / weightp=2 / keyint=240 / keyint_min=24 / scenecut=40 / intra_refresh=0 / rc_lookahead=60 / rc=crf / mbtree=1 / crf=19.0 / qcomp=0.60 / qpmin=0 / qpmax=69 / qpstep=4 / vbv_maxrate=62500 / vbv_bufsize=78125 / crf_max=0.0 / nal_hrd=none / filler=0 / ip_ratio=1.40 / aq=1:1.00
    Default                     : Yes
    Forced                      : Yes
    Color range                 : Limited
    Color primaries             : BT.709
    Transfer characteristics    : BT.709
    Matrix coefficients         : BT.709

    Audio #1
    ID                          : 2
    Format                      : AC-3
    Format/Info                 : Audio Coding 3
    Commercial name             : Dolby Digital
    Codec ID                    : A_AC3
    Duration                    : 1 h 36 min
    Bit rate mode               : Constant
    Bit rate                    : 256 kb/s
    Channel(s)                  : 2 channels
    Channel layout              : L R
    Sampling rate               : 48.0 kHz
    Frame rate                  : 31.250 FPS (1536 SPF)
    Compression mode            : Lossy
    Stream size                 : 177 MiB (2%)
    Title                       : Español Latino [CinemaniaHDD]
    Language                    : Spanish
    Service kind                : Complete Main
    Default                     : Yes
    Forced                      : Yes

    Audio #2
    ID                          : 3
    Format                      : DTS
    Format/Info                 : Digital Theater Systems
    Codec ID                    : A_DTS
    Duration                    : 1 h 36 min
    Bit rate mode               : Constant
    Bit rate                    : 1 509 kb/s
    Channel(s)                  : 6 channels
    Channel layout              : C L R Ls Rs LFE
    Sampling rate               : 48.0 kHz
    Frame rate                  : 93.750 FPS (512 SPF)
    Bit depth                   : 24 bits
    Compression mode            : Lossy
    Stream size                 : 1.02 GiB (14%)
    Title                       : Frances [CinemaniaHDD]
    Language                    : French
    Default                     : No
    Forced                      : No

    Text #1
    ID                          : 4
    Format                      : UTF-8
    Codec ID                    : S_TEXT/UTF8
    Codec ID/Info               : UTF-8 Plain Text
    Duration                    : 2 s 167 ms
    Bit rate                    : 55 b/s
    Count of elements           : 1
    Stream size                 : 15.0 Bytes (0%)
    Title                       : Forzados-SRT [CinemaniaHDD]
    Language                    : Spanish
    Default                     : Yes
    Forced                      : Yes

    Text #2
    ID                          : 5
    Format                      : UTF-8
    Codec ID                    : S_TEXT/UTF8
    Codec ID/Info               : UTF-8 Plain Text
    Duration                    : 1 h 31 min
    Bit rate                    : 42 b/s
    Count of elements           : 1187
    Stream size                 : 28.3 KiB (0%)
    Title                       : Español-SRT [CinemaniaHDD]
    Language                    : Spanish
    Default                     : No
    Forced                      : No

    Text #3
    ID                          : 6
    Format                      : UTF-8
    Codec ID                    : S_TEXT/UTF8
    Codec ID/Info               : UTF-8 Plain Text
    Duration                    : 1 h 35 min
    Bit rate                    : 62 b/s
    Count of elements           : 1760
    Stream size                 : 43.6 KiB (0%)
    Title                       : Frances [CinemaniaHDD]
    Language                    : French
    Default                     : No
    Forced                      : No

    Menu
    00:00:00.000                : :Chapter 01
    00:09:38.125                : :Chapter 02
    00:17:18.750                : :Chapter 03
    00:23:51.791                : :Chapter 04
    00:27:46.041                : :Chapter 05
    00:33:50.583                : :Chapter 06
    00:41:10.416                : :Chapter 07
    00:47:40.916                : :Chapter 08
    00:55:53.833                : :Chapter 09
    01:02:56.041                : :Chapter 10
    01:08:32.833                : :Chapter 11
    01:13:39.125                : :Chapter 12
    01:17:05.250                : :Chapter 13
    01:22:11.541                : :Chapter 14
    01:26:12.791                : :Chapter 15
    01:32:44.708                : :Chapter 16

  • Peso: 7.39 GiB

Sinopsis

Descargar Vacaciones Contigo… Y Tu Mujer (2020) PLACEBO Full HD 1080p Latino. Antoinette, una maestra de escuela, espera con ansias sus largas vacaciones de verano planeadas con su amante secreto Vladimir, el padre de uno de sus alumnos. Al enterarse de que Vladimir no puede venir porque su esposa organizó unas vacaciones de trekking sorpresa con su hija y un burro para llevar su carga, Antoinette decide seguir su rastro, sola, con Patrick, un burro protector.

Español Latino AC3 2.0 Web – Frances DTS 5.1 BD

Ficha técnica

Video trailer de la película

Enlaces de descarga

Rip de Bluray

Descargar Vacaciones Contigo… Y Tu Mujer (2020) PLACEBO Full HD 1080p Latino




Aportes de DPeliculasHDmega la pass es:dpeliculashdmega.org Aportes de CinemaniaHD la pass es:cinemaniahdd.com

Películas relacionadas

  • DC Liga De Supermascotas (2022) HD 1080p Latino

    DC Liga De Supermascotas (2022) HD 1080p Latino

    2022
    DC Liga De Supermascotas (2022) HD 1080p Latino

    1h 45m 2022

    Descargar DC Liga De Supermascotas (2022) HD 1080p Latino. Krypto el Superperro y Superman son amigos...

    Director: Sam Levine

    Género: Acción

    Actores: Yvette Nicole Brown

  • Rick and Morty (2022) Temporada 6 WEB-DL 1080p Latino

    Rick and Morty (2022) Temporada 6 WEB-DL 1080p Latino

    2013
    Rick and Morty (2022) Temporada 6 WEB-DL 1080p Latino

    0h 22m 2013

    Comedia animada que narra las aventuras de un científico loco Rick Sánchez, que regresa después de...

    Director: Justin Roiland

    Género: Action & Adventure

    Actores: Spencer Grammer

  • Tremors (1990) REMUX 4K HDR Latino – CMHDD

    Tremors (1990) REMUX 4K HDR Latino – CMHDD

    1990
    Tremors (1990) REMUX 4K HDR Latino – CMHDD

    1h 35m 1990

    En Perfección, un pequeño pueblo al borde del desierto de Nevada, algo parece suceder debajo de la...

    Director: Susan Bierbaum

    Género: Acción

    Actores: Victor Wong

descargar Vacaciones Contigo… Y Tu Mujer (2020) PLACEBO Full HD 1080p Latino Full 1080p 1080p gratis, Vacaciones Contigo… Y Tu Mujer (2020) PLACEBO Full HD 1080p Latino Full 1080p mega 1 link, Vacaciones Contigo… Y Tu Mujer (2020) PLACEBO Full HD 1080p Latino Full 1080p pelicula completa, descargar Vacaciones Contigo… Y Tu Mujer (2020) PLACEBO Full HD 1080p Latino Full 1080p gratis en mega.

Vacaciones Contigo… Y Tu Mujer (2020) PLACEBO Full HD 1080p Latino pelicula full hd, Vacaciones Contigo… Y Tu Mujer (2020) PLACEBO Full HD 1080p Latino mega latino, Vacaciones Contigo… Y Tu Mujer (2020) PLACEBO Full HD 1080p Latino 4k latino, Vacaciones Contigo… Y Tu Mujer (2020) PLACEBO Full HD 1080p Latino pelicula completa, Vacaciones Contigo… Y Tu Mujer (2020) PLACEBO Full HD 1080p Latino descargar gratis, descargar Vacaciones Contigo… Y Tu Mujer (2020) PLACEBO Full HD 1080p Latino pelicula latino, Vacaciones Contigo… Y Tu Mujer (2020) PLACEBO Full HD 1080p Latino 1 link mega, Vacaciones Contigo… Y Tu Mujer (2020) PLACEBO Full HD 1080p Latino 1 link google drive, Vacaciones Contigo… Y Tu Mujer (2020) PLACEBO Full HD 1080p Latino hd 1080p latino.
Comentarios 0