×

¿Problemas para descargar con Mozilla, EDGE? Deshabilita la opción "Abrir vinculos en una pestaña nueva" tal como lo muestra ésta imagen.

VHS (2012) AMZN WEB-DL 1080p Latino

3.793 vistas

Información de VHS (2012) AMZN WEB-DL 1080p Latino

Datos de la película

  • Calidad: 1080p
  • Audio: Español Latino AC3 2.0 WEB-DL - Ingles AC3 2.0 WEB-DL
  • Subtitulos: Español Latino SRT- FORZADOS SRT
  • Resolución: 1920x1080
  • Formato: MKV
  • Codec: H.264
  • Encoder: cinemaniahdd
  • Mediainfo: Clic para Mostrar Datos Ver
  • VHS (2012) AMZN WEB-DL 1080p Latino [CNMNHDD].mkv
    Format                      : Matroska
    Format version              : Version 4
    File size                   : 8.97 GiB
    Duration                    : 1 h 56 min
    Overall bit rate            : 11.1 Mb/s
    Movie name                  : VHS (2012) [1080p] - CinemaniaHDD.Net
    Encoded date                : UTC 2024-01-03 01:24:21
    Writing application         : mkvmerge v56.1.0 ('My Friend') 64-bit
    Writing library             : libebml v1.4.2 + libmatroska v1.6.4

    Video
    ID                          : 1
    Format                      : AVC
    Format/Info                 : Advanced Video Codec
    Format profile              : High@L4
    Format settings             : CABAC / 4 Ref Frames
    Format settings, CABAC      : Yes
    Format settings, Reference  : 4 frames
    Codec ID                    : V_MPEG4/ISO/AVC
    Duration                    : 1 h 56 min
    Bit rate                    : 10.2 Mb/s
    Width                       : 1 920 pixels
    Height                      : 1 080 pixels
    Display aspect ratio        : 16:9
    Frame rate mode             : Constant
    Frame rate                  : 23.976 (24000/1001) FPS
    Color space                 : YUV
    Chroma subsampling          : 4:2:0
    Bit depth                   : 8 bits
    Scan type                   : Progressive
    Bits/(Pixel*Frame)          : 0.206
    Stream size                 : 8.29 GiB (92%)
    Title                       : CinemaniaHDD
    Default                     : Yes
    Forced                      : No
    Color range                 : Limited
    Color primaries             : BT.709
    Transfer characteristics    : BT.709
    Matrix coefficients         : BT.709

    Audio #1
    ID                          : 2
    Format                      : AC-3
    Format/Info                 : Audio Coding 3
    Commercial name             : Dolby Digital
    Codec ID                    : A_AC3
    Duration                    : 1 h 56 min
    Bit rate mode               : Constant
    Bit rate                    : 384 kb/s
    Channel(s)                  : 2 channels
    Channel layout              : L R
    Sampling rate               : 48.0 kHz
    Frame rate                  : 31.250 FPS (1536 SPF)
    Compression mode            : Lossy
    Stream size                 : 319 MiB (3%)
    Title                       : Español Latino [CinemaniaHDD]
    Language                    : Spanish
    Service kind                : Complete Main
    Default                     : Yes
    Forced                      : No

    Audio #2
    ID                          : 3
    Format                      : E-AC-3
    Format/Info                 : Enhanced AC-3
    Commercial name             : Dolby Digital Plus
    Codec ID                    : A_EAC3
    Duration                    : 1 h 56 min
    Bit rate mode               : Constant
    Bit rate                    : 224 kb/s
    Channel(s)                  : 2 channels
    Channel layout              : L R
    Sampling rate               : 48.0 kHz
    Frame rate                  : 31.250 FPS (1536 SPF)
    Compression mode            : Lossy
    Stream size                 : 186 MiB (2%)
    Title                       : Español latino / E-AC3 [CinemaniaHDD]
    Language                    : Spanish
    Service kind                : Complete Main
    Default                     : No
    Forced                      : No

    Audio #3
    ID                          : 4
    Format                      : E-AC-3
    Format/Info                 : Enhanced AC-3
    Commercial name             : Dolby Digital Plus
    Codec ID                    : A_EAC3
    Duration                    : 1 h 56 min
    Bit rate mode               : Constant
    Bit rate                    : 224 kb/s
    Channel(s)                  : 2 channels
    Channel layout              : L R
    Sampling rate               : 48.0 kHz
    Frame rate                  : 31.250 FPS (1536 SPF)
    Compression mode            : Lossy
    Stream size                 : 186 MiB (2%)
    Title                       : Inglés [CinemaniaHDD]
    Language                    : English
    Service kind                : Complete Main
    Default                     : No
    Forced                      : No

    Text #1
    ID                          : 5
    Format                      : UTF-8
    Codec ID                    : S_TEXT/UTF8
    Codec ID/Info               : UTF-8 Plain Text
    Duration                    : 1 h 34 min
    Bit rate                    : 0 b/s
    Count of elements           : 7
    Stream size                 : 112 Bytes (0%)
    Title                       : Forzados [CinemaniaHDD]
    Language                    : Spanish
    Default                     : Yes
    Forced                      : Yes

    Text #2
    ID                          : 6
    Format                      : UTF-8
    Codec ID                    : S_TEXT/UTF8
    Codec ID/Info               : UTF-8 Plain Text
    Duration                    : 1 h 52 min
    Bit rate                    : 63 b/s
    Count of elements           : 1652
    Stream size                 : 52.0 KiB (0%)
    Title                       : Español Latino [CinemaniaHDD]
    Language                    : Spanish
    Default                     : No
    Forced                      : No

    Menu
    00:00:00.000                : 1. Studio Logos
    00:00:19.000                : 2. Fuzzy Tape
    00:03:15.000                : 3. Rape Video Deals
    00:05:04.000                : 4. The Guys Head for a Great Tape
    00:06:10.000                : 5. Strange Tapes and Nights
    00:10:59.000                : 6. The Ultimate Glasses
    00:15:00.000                : 7. Bumps and Lines
    00:17:59.000                : 8. Unwanted Frames
    00:23:11.000                : 9. Alone Time
    00:24:54.000                : 10. Clint Tries to Wake Lisa
    00:27:19.000                : 11. Clint Escapes the Room
    00:30:50.000                : 12. Gary and the Guys Steal All Tapes
    00:34:20.000                : 13. Road Trip
    00:36:49.000                : 14. Stephanie Tours the Wild West Junction
    00:40:02.000                : 15. Stephanie Doesn't Want to Film
    00:42:55.000                : 16. Sam Explains the Encounter
    00:46:45.000                : 17. Stephanie and Sam Get Another Visitor
    00:50:39.000                : 18. Was It You
    00:54:24.000                : 19. Sam Maps Out the Trip
    00:57:13.000                : 20. Wendy and Her Friends
    01:00:12.000                : 21. Wendy Leads the Crew
    01:02:33.000                : 22. Toking Up
    01:05:51.000                : 23. Swimfan
    01:08:18.000                : 24. Wendy Records Joey
    01:11:37.000                : 25. Wendy Confronts the Glitch, Woods
    01:14:18.000                : 26. Where Is Everyone
    01:15:37.000                : 27. Emily Talks to James
    01:18:10.000                : 28. James Sees Something
    01:20:46.000                : 29. Late Night Noises
    01:24:13.000                : 30. Can We Catch the Ghost
    01:28:18.000                : 31. Emily Wakes Up
    01:31:46.000                : 32. Gone
    01:33:27.000                : 33. Halloween Party
    01:37:09.000                : 34. Where the Party At
    01:41:42.000                : 35. Scare Tactic
    01:44:29.000                : 36. Rescue Efforts
    01:47:58.000                : 37. Chad's Car Malfunctions
    01:50:44.000                : 38. End Credits

     

  • Peso: 8.97 GiB

Sinopsis

Un grupo de matones son contratados por un misterioso sujeto para que vayan a una casa abandonada y encuentren allí un VHS con imágenes horribles. Las instrucciones decían que el video sería de fácil reconocimiento, pero cuando llegan a la casa encuentran una enorme biblioteca llena de VHS. Su tarea será entonces descubrir cuál es la cinta maldita.

Ficha técnica

Video trailer de la película

Enlaces de descarga

Rip de Bluray

Descargar VHS (2012) AMZN WEB-DL 1080p Latino




Aportes de DPeliculasHDmega la pass es:dpeliculashdmega.org Aportes de CinemaniaHD la pass es:cinemaniahdd.com Aportes recientes:cinemaniahdd.net
Guardado en : Suspenso , Terror

Películas relacionadas

  • Red de venganza (2023) HD 1080p Latino

    Red de venganza (2023) HD 1080p Latino

    2023
    Red de venganza (2023) HD 1080p Latino

    1h 25m 2023

    Descargar Red de venganza (2023) HD 1080p Latino. Analiza los problemas que surgen entre una madre (Summer...

    Director: Amy Redford

    Género: Drama

    Actores: Summer Phoenix

  • Red de venganza (2023) REMUX 1080p Latino

    Red de venganza (2023) REMUX 1080p Latino

    2023
    Red de venganza (2023) REMUX 1080p Latino

    1h 25m 2023

    Descargar Red de venganza (2023) REMUX 1080p Latino. Analiza los problemas que surgen entre una madre...

    Director: Amy Redford

    Género: Drama

    Actores: Summer Phoenix

  • Recuerdos Mortales (2024) WEB-DL 1080p Latino

    Recuerdos Mortales (2024) WEB-DL 1080p Latino

    2024
    Recuerdos Mortales (2024) WEB-DL 1080p Latino

    1h 52m 2024

    Descargar Recuerdos Mortales (2024) WEB-DL 1080p Latino. Después de someterse a un tratamiento de vanguardia...

    Director: Adam Cooper

    Género: Crimen

    Actores: Tommy Flanagan

  • La primera profecía (2024) WEB-DL 1080p Latino

    La primera profecía (2024) WEB-DL 1080p Latino

    2024
    La primera profecía (2024) WEB-DL 1080p Latino

    1h 59m 2024

    Descargar La primera profecía (2024) WEB-DL 1080p Latino. Cuando una joven estadounidense es enviada...

    Director: Timothy Visentin

    Género: Terror

    Actores: Tawfeek Barhom

descargar VHS (2012) AMZN WEB-DL 1080p Latino 1080p 1080p gratis, VHS (2012) AMZN WEB-DL 1080p Latino 1080p mega 1 link, VHS (2012) AMZN WEB-DL 1080p Latino 1080p pelicula completa, descargar VHS (2012) AMZN WEB-DL 1080p Latino 1080p gratis en mega.

VHS (2012) AMZN WEB-DL 1080p Latino pelicula full hd, VHS (2012) AMZN WEB-DL 1080p Latino mega latino, VHS (2012) AMZN WEB-DL 1080p Latino 4k latino, VHS (2012) AMZN WEB-DL 1080p Latino pelicula completa, VHS (2012) AMZN WEB-DL 1080p Latino descargar gratis, descargar VHS (2012) AMZN WEB-DL 1080p Latino pelicula latino, VHS (2012) AMZN WEB-DL 1080p Latino 1 link mega, VHS (2012) AMZN WEB-DL 1080p Latino 1 link google drive, VHS (2012) AMZN WEB-DL 1080p Latino hd 1080p latino.
Comentarios 0