×

¿Problemas para descargar con Mozilla, EDGE? Deshabilita la opción "Abrir vinculos en una pestaña nueva" tal como lo muestra ésta imagen.

V for Vendetta (2005) REMUX 4K HDR Latino – CMHDD

343 vistas

Información de V for Vendetta (2005) REMUX 4K HDR Latino – CMHDD

Datos de la película

  • Calidad: 4K HDR
  • Audio: Español Latino AC3 2.0 BLURAY - Ingles AC3 5.1 BLURAY
  • Subtitulos: Español Latino PGS
  • Resolución: 3840x2160p
  • Formato: MKV
  • Codec: H.264
  • Encoder: Dracarys
  • Mediainfo: Clic para Mostrar Datos Ver
  • Format                      : Matroska
    Format version              : Version 4
    File size                   : 64.6 GiB
    Duration                    : 2 h 12 min
    Overall bit rate mode       : Variable
    Overall bit rate            : 69.8 Mb/s
    Movie name                  : V for Vendetta (2005) REMUX 4K HDR Latino – CMHDD
    Encoded date                : UTC 2024-06-16 22:27:53
    Writing application         : mkvmerge v47.0.0 ('Black Flag') 64-bit
    Writing library             : libebml v1.3.10 + libmatroska v1.5.2

    Video
    ID                          : 1
    ID in the original source m : 4113 (0x1011)
    Format                      : HEVC
    Format/Info                 : High Efficiency Video Coding
    Format profile              : Main 10@L5.1@High
    HDR format                  : SMPTE ST 2086, HDR10 compatible
    Codec ID                    : V_MPEGH/ISO/HEVC
    Duration                    : 2 h 12 min
    Bit rate                    : 65.6 Mb/s
    Width                       : 3 840 pixels
    Height                      : 2 160 pixels
    Display aspect ratio        : 16:9
    Frame rate mode             : Constant
    Frame rate                  : 23.976 (24000/1001) FPS
    Color space                 : YUV
    Chroma subsampling          : 4:2:0 (Type 2)
    Bit depth                   : 10 bits
    Bits/(Pixel*Frame)          : 0.330
    Stream size                 : 60.8 GiB (94%)
    Writing library             : ATEME Titan File 3.9.6 (4.9.6.2)        
    Default                     : No
    Forced                      : No
    Color range                 : Limited
    Color primaries             : BT.2020
    Transfer characteristics    : PQ
    Matrix coefficients         : BT.2020 non-constant
    Mastering display color pri : Display P3
    Mastering display luminance : min: 0.0050 cd/m2, max: 4000 cd/m2
    Maximum Content Light Level : 2491 cd/m2
    Maximum Frame-Average Light : 130 cd/m2
    Original source medium      : Blu-ray

    Audio #1
    ID                          : 2
    Format                      : AC-3
    Format/Info                 : Audio Coding 3
    Commercial name             : Dolby Digital
    Codec ID                    : A_AC3
    Duration                    : 2 h 12 min
    Bit rate mode               : Constant
    Bit rate                    : 448 kb/s
    Channel(s)                  : 6 channels
    Channel layout              : L R C LFE Ls Rs
    Sampling rate               : 48.0 kHz
    Frame rate                  : 31.250 FPS (1536 SPF)
    Compression mode            : Lossy
    Stream size                 : 425 MiB (1%)
    Language                    : Spanish
    Service kind                : Complete Main
    Default                     : Yes
    Forced                      : No

    Audio #2
    ID                          : 3
    ID in the original source m : 4360 (0x1108)
    Format                      : AC-3
    Format/Info                 : Audio Coding 3
    Commercial name             : Dolby Digital
    Format settings             : Dolby Surround
    Codec ID                    : A_AC3
    Duration                    : 2 h 12 min
    Bit rate mode               : Constant
    Bit rate                    : 192 kb/s
    Channel(s)                  : 2 channels
    Channel layout              : L R
    Sampling rate               : 48.0 kHz
    Frame rate                  : 31.250 FPS (1536 SPF)
    Compression mode            : Lossy
    Stream size                 : 182 MiB (0%)
    Language                    : Spanish
    Service kind                : Complete Main
    Default                     : No
    Forced                      : Yes
    Original source medium      : Blu-ray

    Audio #3
    ID                          : 4
    Format                      : DTS XLL
    Format/Info                 : Digital Theater Systems
    Commercial name             : DTS-HD Master Audio
    Codec ID                    : A_DTS
    Duration                    : 2 h 12 min
    Bit rate mode               : Variable
    Bit rate                    : 3 487 kb/s
    Channel(s)                  : 8 channels
    Channel layout              : C L R LFE Lb Rb Lss Rss
    Sampling rate               : 48.0 kHz
    Frame rate                  : 93.750 FPS (512 SPF)
    Bit depth                   : 24 bits
    Compression mode            : Lossless
    Stream size                 : 3.23 GiB (5%)
    Language                    : English
    Default                     : No
    Forced                      : No

    Text #1
    ID                          : 5
    Format                      : UTF-8
    Codec ID                    : S_TEXT/UTF8
    Codec ID/Info               : UTF-8 Plain Text
    Duration                    : 2 h 4 min
    Bit rate                    : 0 b/s
    Count of elements           : 26
    Stream size                 : 676 Bytes (0%)
    Title                       : Forzados
    Language                    : Spanish
    Default                     : Yes
    Forced                      : Yes

    Text #2
    ID                          : 6
    Format                      : UTF-8
    Codec ID                    : S_TEXT/UTF8
    Codec ID/Info               : UTF-8 Plain Text
    Duration                    : 2 h 11 min
    Bit rate                    : 67 b/s
    Count of elements           : 1713
    Stream size                 : 64.9 KiB (0%)
    Language                    : Spanish
    Default                     : No
    Forced                      : No

    Text #3
    ID                          : 7
    ID in the original source m : 4792 (0x12B8)
    Format                      : PGS
    Muxing mode                 : zlib
    Codec ID                    : S_HDMV/PGS
    Codec ID/Info               : Picture based subtitle format used on BDs/HD-DVDs
    Duration                    : 2 h 4 min
    Bit rate                    : 509 b/s
    Count of elements           : 52
    Stream size                 : 464 KiB (0%)
    Title                       : FORZADOS PGS
    Language                    : Spanish
    Default                     : No
    Forced                      : No
    Original source medium      : Blu-ray

    Text #4
    ID                          : 8
    ID in the original source m : 4778 (0x12AA)
    Format                      : PGS
    Muxing mode                 : zlib
    Codec ID                    : S_HDMV/PGS
    Codec ID/Info               : Picture based subtitle format used on BDs/HD-DVDs
    Duration                    : 2 h 11 min
    Bit rate                    : 36.4 kb/s
    Count of elements           : 3426
    Stream size                 : 34.2 MiB (0%)
    Language                    : Spanish
    Default                     : No
    Forced                      : No
    Original source medium      : Blu-ray

    Menu
    00:00:00.000                : en:Chapter 01
    00:02:24.394                : en:Chapter 02
    00:09:07.964                : en:Chapter 03
    00:11:00.618                : en:Chapter 04
    00:16:26.902                : en:Chapter 05
    00:21:56.648                : en:Chapter 06
    00:25:01.500                : en:Chapter 07
    00:30:09.891                : en:Chapter 08
    00:35:37.218                : en:Chapter 09
    00:40:37.101                : en:Chapter 10
    00:43:14.133                : en:Chapter 11
    00:48:02.713                : en:Chapter 12
    00:49:40.811                : en:Chapter 13
    00:54:10.121                : en:Chapter 14
    00:56:39.604                : en:Chapter 15
    01:00:31.377                : en:Chapter 16
    01:04:47.049                : en:Chapter 17
    01:09:41.260                : en:Chapter 18
    01:12:07.239                : en:Chapter 19
    01:18:49.808                : en:Chapter 20
    01:21:13.034                : en:Chapter 21
    01:26:01.447                : en:Chapter 22
    01:29:38.831                : en:Chapter 23
    01:32:08.314                : en:Chapter 24
    01:36:21.275                : en:Chapter 25
    01:39:28.545                : en:Chapter 26
    01:44:17.584                : en:Chapter 27
    01:48:50.440                : en:Chapter 28
    01:52:03.717                : en:Chapter 29
    01:53:57.705                : en:Chapter 30
    01:57:51.564                : en:Chapter 31
    01:59:35.293                : en:Chapter 32
    02:04:38.220                : en:Chapter 33

     

  • Peso: 64,4 GiB

Sinopsis

En un futuro no muy lejano, Gran Bretaña es un país totalitario dirigido con mano de hierro por un tirano (John Hurt). Una tarde, tras el toque de queda nocturno, la joven Evey (Natalie Portman) es rescatada en plena calle por un misterioso enmascarado cuyo nombre es V (Hugo Weaving). El extraño personaje le explica cuáles son sus planes para combatir la falta de libertad. A partir de ese momento, las acciones de V tendrán como objetivo hacer estallar en todo el país una revolución contra el gobierno fascista.

Ficha técnica

Video trailer de la película

Enlaces de descarga

Rip de Bluray

Descargar V for Vendetta (2005) REMUX 4K HDR Latino – CMHDD




Aportes de DPeliculasHDmega la pass es:dpeliculashdmega.org Aportes de CinemaniaHD la pass es:cinemaniahdd.com Aportes recientes:cinemaniahdd.net
Guardado en : Acción , Ciencia ficción , Suspenso

Películas relacionadas

descargar V for Vendetta (2005) REMUX 4K HDR Latino – CMHDD 4K HDR 1080p gratis, V for Vendetta (2005) REMUX 4K HDR Latino – CMHDD 4K HDR mega 1 link, V for Vendetta (2005) REMUX 4K HDR Latino – CMHDD 4K HDR pelicula completa, descargar V for Vendetta (2005) REMUX 4K HDR Latino – CMHDD 4K HDR gratis en mega.

V for Vendetta (2005) REMUX 4K HDR Latino – CMHDD pelicula full hd, V for Vendetta (2005) REMUX 4K HDR Latino – CMHDD mega latino, V for Vendetta (2005) REMUX 4K HDR Latino – CMHDD 4k latino, V for Vendetta (2005) REMUX 4K HDR Latino – CMHDD pelicula completa, V for Vendetta (2005) REMUX 4K HDR Latino – CMHDD descargar gratis, descargar V for Vendetta (2005) REMUX 4K HDR Latino – CMHDD pelicula latino, V for Vendetta (2005) REMUX 4K HDR Latino – CMHDD 1 link mega, V for Vendetta (2005) REMUX 4K HDR Latino – CMHDD 1 link google drive, V for Vendetta (2005) REMUX 4K HDR Latino – CMHDD hd 1080p latino.
Comentarios 0