×

¿Problemas para descargar con Mozilla, EDGE? Deshabilita la opción "Abrir vinculos en una pestaña nueva" tal como lo muestra ésta imagen.

Uuups! El Arca nos dejó (2015) REMUX 1080p Latino

203 vistas

Información de Uuups! El Arca nos dejó (2015) REMUX 1080p Latino

Datos de la película

  • Calidad: Full 1080p
  • Audio: Se especifica abajo de la Sinopsis
  • Subtitulos: Español Latino SRT- FORZADOS SRT
  • Resolución: 1920x1080p
  • Formato: MKV
  • Codec: H.264
  • Encoder: Melkor
  • Mediainfo: Clic para Mostrar Datos Ver
  • Uuups El Arca Nos Dejo (2015) REMUX 1080p Latino.mkv
    Format                      : Matroska
    Format version              : Version 4
    File size                   : 14.8 GiB
    Duration                    : 1 h 26 min
    Overall bit rate mode       : Variable
    Overall bit rate            : 24.5 Mb/s
    Movie name                  : Ooops! Noah Is Gone (2015) CinemaniaHDD.Net
    Encoded date                : UTC 2021-06-17 03:38:27
    Writing application         : mkvmerge v56.1.0 ('My Friend') 64-bit
    Writing library             : libebml v1.4.2 + libmatroska v1.6.4
    Attachments                 : CINEMANIAHD.png

    Video
    ID                          : 1
    Format                      : AVC
    Format/Info                 : Advanced Video Codec
    Format profile              : High@L4.1
    Format settings             : CABAC / 2 Ref Frames
    Format settings, CABAC      : Yes
    Format settings, Reference  : 2 frames
    Codec ID                    : V_MPEG4/ISO/AVC
    Duration                    : 1 h 26 min
    Bit rate mode               : Variable
    Bit rate                    : 19.6 Mb/s
    Width                       : 1 920 pixels
    Height                      : 1 080 pixels
    Display aspect ratio        : 16:9
    Frame rate mode             : Constant
    Frame rate                  : 23.976 (24000/1001) FPS
    Color space                 : YUV
    Chroma subsampling          : 4:2:0
    Bit depth                   : 8 bits
    Scan type                   : Progressive
    Bits/(Pixel*Frame)          : 0.395
    Stream size                 : 11.9 GiB (80%)
    Title                       : REMUX HD1080p [CinemaniaHDD]
    Default                     : Yes
    Forced                      : Yes

    Audio #1
    ID                          : 2
    Format                      : AC-3
    Format/Info                 : Audio Coding 3
    Commercial name             : Dolby Digital
    Codec ID                    : A_AC3
    Duration                    : 1 h 26 min
    Bit rate mode               : Constant
    Bit rate                    : 448 kb/s
    Channel(s)                  : 6 channels
    Channel layout              : L R C LFE Ls Rs
    Sampling rate               : 48.0 kHz
    Frame rate                  : 31.250 FPS (1536 SPF)
    Compression mode            : Lossy
    Stream size                 : 278 MiB (2%)
    Title                       : Español Latino [CinemaniaHDD]
    Language                    : Spanish
    Service kind                : Complete Main
    Default                     : Yes
    Forced                      : Yes

    Audio #2
    ID                          : 3
    Format                      : DTS XLL
    Format/Info                 : Digital Theater Systems
    Commercial name             : DTS-HD Master Audio
    Codec ID                    : A_DTS
    Duration                    : 1 h 26 min
    Bit rate mode               : Variable
    Bit rate                    : 4 128 kb/s
    Channel(s)                  : 6 channels
    Channel layout              : C L R Ls Rs LFE
    Sampling rate               : 48.0 kHz
    Frame rate                  : 93.750 FPS (512 SPF)
    Bit depth                   : 24 bits
    Compression mode            : Lossless
    Stream size                 : 2.51 GiB (17%)
    Title                       : Ingles [CinemaniaHDD]
    Language                    : English
    Default                     : No
    Forced                      : No

    Audio #3
    ID                          : 4
    Format                      : E-AC-3
    Format/Info                 : Enhanced AC-3
    Commercial name             : Dolby Digital Plus
    Codec ID                    : A_EAC3
    Duration                    : 1 h 26 min
    Bit rate mode               : Constant
    Bit rate                    : 224 kb/s
    Channel(s)                  : 2 channels
    Channel layout              : L R
    Sampling rate               : 48.0 kHz
    Frame rate                  : 31.250 FPS (1536 SPF)
    Compression mode            : Lossy
    Delay relative to video     : 811 ms
    Stream size                 : 138 MiB (1%)
    Title                       : Español Latino EAC3 [CinemaniaHDD]
    Language                    : Spanish
    Service kind                : Complete Main
    Default                     : No
    Forced                      : No

    Text #1
    ID                          : 5
    Format                      : UTF-8
    Codec ID                    : S_TEXT/UTF8
    Codec ID/Info               : UTF-8 Plain Text
    Duration                    : 1 h 17 min
    Bit rate                    : 0 b/s
    Count of elements           : 4
    Stream size                 : 49.0 Bytes (0%)
    Title                       : Forzados-SRT [CinemaniaHDD]
    Language                    : Spanish
    Default                     : Yes
    Forced                      : Yes

    Text #2
    ID                          : 6
    Format                      : UTF-8
    Codec ID                    : S_TEXT/UTF8
    Codec ID/Info               : UTF-8 Plain Text
    Duration                    : 1 h 20 min
    Bit rate                    : 40 b/s
    Count of elements           : 1009
    Stream size                 : 23.9 KiB (0%)
    Title                       : Español-SRT [CinemaniaHDD]
    Language                    : Spanish
    Default                     : No
    Forced                      : No

    Text #3
    ID                          : 7
    Format                      : UTF-8
    Codec ID                    : S_TEXT/UTF8
    Codec ID/Info               : UTF-8 Plain Text
    Duration                    : 1 h 21 min
    Bit rate                    : 50 b/s
    Count of elements           : 1096
    Stream size                 : 30.0 KiB (0%)
    Title                       : Ingles-SRT [CinemaniaHDD]
    Language                    : English
    Default                     : No
    Forced                      : No

    Menu
    00:00:00.000                : :Chapter 01
    00:11:25.184                : :Chapter 02
    00:24:14.745                : :Chapter 03
    00:36:00.158                : :Chapter 04
    00:49:48.068                : :Chapter 05
    00:59:02.205                : :Chapter 06
    01:05:10.657                : :Chapter 07
    01:20:27.156                : :Chapter 08

  • Peso: 14.8 GiB

Sinopsis

Descargar Uuups! El Arca nos dejó (2015) REMUX 1080p Latino. Es el fin del mundo. Un diluvio llega. Por suerte para Dave y su hijo Finny, un par de torpes Nestrians, se ha construido un Arca para salvar a todos los animales. Pero resulta que no se admiten Nestrians. Abordan furtivamente con la ayuda involuntaria de Hazel y su hija Leah, dos Grymps, creen que están a salvo. Finny y Leah tienen que intentar sobrevivir a la inundación y a los depredadores hambrientos y tratar de llegar a la cima de una montaña , mientras que Dave y Hazel deben dejar de lado sus diferencias.

Español Latino AC3 5.1 & EAC3 2.0 – Ingles DTS-HD 5.1

Nota: Disponible Solo Para VIP!!! 🙂

Ficha técnica

Video trailer de la película

Enlaces de descarga

Rip de Bluray

Descargar Uuups! El Arca nos dejó (2015) REMUX 1080p Latino


Aportes de DPeliculasHDmega la pass es:dpeliculashdmega.org Aportes de CinemaniaHD la pass es:cinemaniahdd.com
Guardado en : Animación , Aventura , Comedia , Familia , Remux

Películas relacionadas

descargar Uuups! El Arca nos dejó (2015) REMUX 1080p Latino Full 1080p 1080p gratis, Uuups! El Arca nos dejó (2015) REMUX 1080p Latino Full 1080p mega 1 link, Uuups! El Arca nos dejó (2015) REMUX 1080p Latino Full 1080p pelicula completa, descargar Uuups! El Arca nos dejó (2015) REMUX 1080p Latino Full 1080p gratis en mega.

Uuups! El Arca nos dejó (2015) REMUX 1080p Latino pelicula full hd, Uuups! El Arca nos dejó (2015) REMUX 1080p Latino mega latino, Uuups! El Arca nos dejó (2015) REMUX 1080p Latino 4k latino, Uuups! El Arca nos dejó (2015) REMUX 1080p Latino pelicula completa, Uuups! El Arca nos dejó (2015) REMUX 1080p Latino descargar gratis, descargar Uuups! El Arca nos dejó (2015) REMUX 1080p Latino pelicula latino, Uuups! El Arca nos dejó (2015) REMUX 1080p Latino 1 link mega, Uuups! El Arca nos dejó (2015) REMUX 1080p Latino 1 link google drive, Uuups! El Arca nos dejó (2015) REMUX 1080p Latino hd 1080p latino.
Comentarios 0