×

¿Problemas para descargar con Mozilla, EDGE? Deshabilita la opción "Abrir vinculos en una pestaña nueva" tal como lo muestra ésta imagen.

Uuups! 2 La aventura continúa (2020) REMUX 1080p Latino

388 vistas

Información de Uuups! 2 La aventura continúa (2020) REMUX 1080p Latino

Datos de la película

  • Calidad: Full 1080p
  • Audio: Español Latino AC3 5.1 iTUNES - Ingles DTS 5.1 BLURAY
  • Subtitulos: Español Latino SRT- FORZADOS SRT
  • Resolución: 1920x1080p
  • Formato: MKV
  • Codec: H.264
  • Encoder: Melkor
  • Mediainfo: Clic para Mostrar Datos Ver
  • Uuups 2 La Aventura Continua (2020) REMUX 1080p Latino.mkv
    Format                      : Matroska
    Format version              : Version 4
    File size                   : 14.8 GiB
    Duration                    : 1 h 26 min
    Overall bit rate mode       : Variable
    Overall bit rate            : 24.6 Mb/s
    Movie name                  : Ooops! The Adventure Continues... (2020) CinemaniaHDD.Net
    Encoded date                : UTC 2021-06-17 00:00:32
    Writing application         : mkvmerge v56.1.0 ('My Friend') 64-bit
    Writing library             : libebml v1.4.2 + libmatroska v1.6.4
    Attachments                 : CINEMANIAHD.png

    Video
    ID                          : 1
    Format                      : AVC
    Format/Info                 : Advanced Video Codec
    Format profile              : High@L4.1
    Format settings             : CABAC / 4 Ref Frames
    Format settings, CABAC      : Yes
    Format settings, Reference  : 4 frames
    Codec ID                    : V_MPEG4/ISO/AVC
    Duration                    : 1 h 26 min
    Bit rate mode               : Variable
    Bit rate                    : 21.8 Mb/s
    Maximum bit rate            : 38.0 Mb/s
    Width                       : 1 920 pixels
    Height                      : 1 080 pixels
    Display aspect ratio        : 16:9
    Frame rate mode             : Constant
    Frame rate                  : 24.000 FPS
    Color space                 : YUV
    Chroma subsampling          : 4:2:0
    Bit depth                   : 8 bits
    Scan type                   : Progressive
    Bits/(Pixel*Frame)          : 0.439
    Stream size                 : 13.1 GiB (89%)
    Title                       : REMUX HD1080p [CinemaniaHDD]
    Default                     : Yes
    Forced                      : Yes

    Audio #1
    ID                          : 2
    Format                      : AC-3
    Format/Info                 : Audio Coding 3
    Commercial name             : Dolby Digital
    Codec ID                    : A_AC3
    Duration                    : 1 h 26 min
    Bit rate mode               : Constant
    Bit rate                    : 384 kb/s
    Channel(s)                  : 6 channels
    Channel layout              : L R C LFE Ls Rs
    Sampling rate               : 48.0 kHz
    Frame rate                  : 31.250 FPS (1536 SPF)
    Compression mode            : Lossy
    Stream size                 : 237 MiB (2%)
    Title                       : Español Latino [CinemaniaHDD]
    Language                    : Spanish
    Service kind                : Complete Main
    Default                     : Yes
    Forced                      : Yes

    Audio #2
    ID                          : 3
    Format                      : DTS XLL
    Format/Info                 : Digital Theater Systems
    Commercial name             : DTS-HD Master Audio
    Codec ID                    : A_DTS
    Duration                    : 1 h 26 min
    Bit rate mode               : Variable
    Bit rate                    : 2 355 kb/s
    Channel(s)                  : 6 channels
    Channel layout              : C L R Ls Rs LFE
    Sampling rate               : 48.0 kHz
    Frame rate                  : 93.750 FPS (512 SPF)
    Bit depth                   : 16 bits
    Compression mode            : Lossless
    Stream size                 : 1.42 GiB (10%)
    Title                       : Ingles [CinemaniaHDD]
    Language                    : English
    Default                     : No
    Forced                      : No

    Text #1
    ID                          : 4
    Format                      : UTF-8
    Codec ID                    : S_TEXT/UTF8
    Codec ID/Info               : UTF-8 Plain Text
    Duration                    : 5 s 375 ms
    Bit rate                    : 19 b/s
    Count of elements           : 1
    Stream size                 : 13.0 Bytes (0%)
    Title                       : Forzados-SRT [CinemaniaHDD]
    Language                    : Spanish
    Default                     : Yes
    Forced                      : Yes

    Text #2
    ID                          : 5
    Format                      : UTF-8
    Codec ID                    : S_TEXT/UTF8
    Codec ID/Info               : UTF-8 Plain Text
    Duration                    : 1 h 20 min
    Bit rate                    : 67 b/s
    Count of elements           : 1113
    Stream size                 : 39.4 KiB (0%)
    Title                       : Español-SRT [CinemaniaHDD]
    Language                    : Spanish
    Default                     : No
    Forced                      : No

    Text #3
    ID                          : 6
    Format                      : UTF-8
    Codec ID                    : S_TEXT/UTF8
    Codec ID/Info               : UTF-8 Plain Text
    Duration                    : 1 h 25 min
    Bit rate                    : 54 b/s
    Count of elements           : 1219
    Stream size                 : 33.8 KiB (0%)
    Title                       : Ingles-SRT [CinemaniaHDD]
    Language                    : English
    Default                     : No
    Forced                      : No

    Menu
    00:00:00.000                : Chapter 01
    00:05:54.583                : Chapter 02
    00:14:29.958                : Chapter 03
    00:21:10.958                : Chapter 04
    00:24:30.542                : Chapter 05
    00:35:11.750                : Chapter 06
    00:46:02.375                : Chapter 07
    00:54:38.375                : Chapter 08
    01:03:17.667                : Chapter 09
    01:10:53.500                : Chapter 10
    01:17:36.000                : Chapter 11
    01:20:53.375                : Chapter 12

  • Peso: 14.8 GiB

Sinopsis

Descargar Uuups! 2 La aventura continúa (2020) REMUX 1080p Latino. La luna de miel ha terminado … ¡Cómo disfrutamos la fiesta cuando nuestros anfibios amigos Nestria descubrieron su increíble agilidad recién descubierta bajo el agua! Pero, cuando volvemos a visitar a nuestros curiosos y adorables amigos, la supervivencia de todo el reino animal vuelve a estar en juego. En medio de la perspectiva de una nueva tierra en la que vivir y prosperar, sin mencionar los recursos alimenticios en constante disminución, el estado de ánimo a bordo del Arca está cargado de tensiones crecientes, que regularmente se desbordan en la ira del Arca. La frágil paz se rompe con frecuencia con el consiguiente caos general. ¿Cómo pueden ayudar nuestros héroes inverosímiles? ¿Y qué hay debajo de Finny en un océano de posibilidades cuando literalmente cae en una nueva compañía bastante sorprendente?

Nota: Disponible Solo Para VIP!!! 🙂

Ficha técnica

Video trailer de la película

Enlaces de descarga

Rip de Bluray

Descargar Uuups! 2 La aventura continúa (2020) REMUX 1080p Latino


Aportes de DPeliculasHDmega la pass es:dpeliculashdmega.org Aportes de CinemaniaHD la pass es:cinemaniahdd.com
Guardado en : Animación , Aventura , Comedia , Familia , Remux

Películas relacionadas

  • Paradise Highway (2022) REMUX 1080p Latino

    Paradise Highway (2022) REMUX 1080p Latino

    2022
    Paradise Highway (2022) REMUX 1080p Latino

    1h 55m 2022

    Descargar Paradise Highway (2022) REMUX 1080p Latino. Un camionero se ha visto obligado a pasar de contrabando...

    Director: Anna Gutto

    Género: Crimen

    Actores: Xavier Scott Evans

  • Shotgun Wedding (2022) AMZN WEB-DL 1080p Latino

    Shotgun Wedding (2022) AMZN WEB-DL 1080p Latino

    2022
    Shotgun Wedding (2022) AMZN WEB-DL 1080p Latino

    1h 41m 2022

    Darcy y Tom reúnen a sus familias para la boda de destino definitiva, pero cuando toman como rehenes...

    Director: Jason Moore

    Género: Acción

    Actores: Steve Coulter

  • M3GAN (2023) AMZN WEB-DL 4K UHD HDR Latino

    M3GAN (2023) AMZN WEB-DL 4K UHD HDR Latino

    2022
    M3GAN (2023) AMZN WEB-DL 4K UHD HDR Latino

    1h 42m 2022

    Descargar M3GAN (2023) AMZN WEB-DL 4K UHD HDR Latino. Cuando Gemma se convierte en la cuidadora de su...

    Director: Stephen W. Moore

    Género: 4K HDR

    Actores: Violet McGraw

  • M3GAN (2022) MA WEB-DL 1080p Latino

    M3GAN (2022) MA WEB-DL 1080p Latino

    2022
    M3GAN (2022) MA WEB-DL 1080p Latino

    1h 42m 2022

    Descargar M3GAN (2022) MA WEB-DL 1080p Latino. Cuando Gemma se convierte en la cuidadora de su sobrina...

    Director: Stephen W. Moore

    Género: Ciencia ficción

    Actores: Violet McGraw

descargar Uuups! 2 La aventura continúa (2020) REMUX 1080p Latino Full 1080p 1080p gratis, Uuups! 2 La aventura continúa (2020) REMUX 1080p Latino Full 1080p mega 1 link, Uuups! 2 La aventura continúa (2020) REMUX 1080p Latino Full 1080p pelicula completa, descargar Uuups! 2 La aventura continúa (2020) REMUX 1080p Latino Full 1080p gratis en mega.

Uuups! 2 La aventura continúa (2020) REMUX 1080p Latino pelicula full hd, Uuups! 2 La aventura continúa (2020) REMUX 1080p Latino mega latino, Uuups! 2 La aventura continúa (2020) REMUX 1080p Latino 4k latino, Uuups! 2 La aventura continúa (2020) REMUX 1080p Latino pelicula completa, Uuups! 2 La aventura continúa (2020) REMUX 1080p Latino descargar gratis, descargar Uuups! 2 La aventura continúa (2020) REMUX 1080p Latino pelicula latino, Uuups! 2 La aventura continúa (2020) REMUX 1080p Latino 1 link mega, Uuups! 2 La aventura continúa (2020) REMUX 1080p Latino 1 link google drive, Uuups! 2 La aventura continúa (2020) REMUX 1080p Latino hd 1080p latino.